Inside the Mind of a Cat

Inside the Mind of a Cat

Mr. MeeseeksMr. Meeseeks   August 18, 2022  
Add to list
Inside the Mind of a Cat

Movie info

Title
Confirmed and upcoming movie titles only! Search before adding to avoid dupes.
Inside the Mind of a Cat
Year
The year the movie is set to be released.
2022
Director
Andy Mitchell
Genre
Pick one or multiple movie genres.
Digital release
Official digital release date on services such as iTunes, Amazon, Netflix. It's the first known release date, without any country restriction. So if it's out on iTunes Russia first, this would be the digital release date.
August 18, 2022
Description
An hour-long documentary film about the psychology of cats.
Where you watch

Where you watch Email alert

Yes, it is available and reported below. Use the alert button to get notified when higher quality versions are available.

Download and stream reports

Is there a Inside the Mind of a Cat torrent? Yes. Reports are available below.
When will Inside the Mind of a Cat be available on VOD? It's set for a August 18, 2022 release.

August 18, 2022
Inside.the.Mind.of.a.Cat.2022.1080p.NF.WEB-DL.x265.10bit.HDR.DDP5.1-SMURF
Video and audio quality: 5/5 | Source: Official web stream

Submitted by: Mr. Meeseeks | Trust Rank level: Supreme Member
Format: Torrent | Site: RARBG
Video ID : 1 Format : HEVC Format/Info : High Efficiency Video Coding Format profile : Main 10@L4@Main HDR format : SMPTE ST 2086, HDR10 compatible Codec ID : V_MPEGH/ISO/HEVC Duration : 1 h 6 min Bit rate : 4 747 kb/s Width : 1 920 pixels Height : 1 080 pixels Display aspect ratio : 16:9 Frame rate mode : Constant Frame rate : 23.976 (24000/1001) FPS Color space : YUV Chroma subsampling : 4:2:0 (Type 2) Bit depth : 10 bits Bits/(Pixel*Frame) : 0.095 Stream size : 2.22 GiB (88%) Language : English Default : Yes Forced : No Color range : Limited Color primaries : BT.2020 Transfer characteristics : PQ Matrix coefficients : BT.2020 non-constant Mastering display color primaries : Display P3 Mastering display luminance : min: 0.0001 cd/m2, max: 1000 cd/m2 Maximum Content Light Level : 756 cd/m2 Maximum Frame-Average Light Level : 112 cd/m2 Audio ID : 2 Format : E-AC-3 Format/Info : Enhanced AC-3 Commercial name : Dolby Digital Plus Codec ID : A_EAC3 Duration : 1 h 7 min Bit rate mode : Constant Bit rate : 640 kb/s Channel(s) : 6 channels Channel layout : L R C LFE Ls Rs Sampling rate : 48.0 kHz Frame rate : 31.250 FPS (1536 SPF) Compression mode : Lossy Stream size : 311 MiB (12%) Language : English Service kind : Complete Main Default : Yes Forced : No

Videos Add media

Inside The Mind Of A Cat Trailer
Inside The Mind Of A Cat Trailer