I'm No Longer Here

I'm No Longer Here

Mr. MeeseeksMr. Meeseeks   May 14, 2020  
Add to list
I'm No Longer Here

Movie info

Title
Confirmed and upcoming movie titles only! Search before adding to avoid dupes.
I'm No Longer Here
Year
The year the movie is set to be released.
2020
Genre
Pick one or multiple movie genres.
Cinema release
First cinema release date in any country.
February 27, 2020
Digital release
Official digital release date on services such as iTunes, Amazon, Netflix. It's the first known release date, without any country restriction. So if it's out on iTunes Russia first, this would be the digital release date.
May 27, 2020
Description
Starring Juan Daniel Garcia, Coral Puente, Leonardo Garza, Luis Leonardo Zapata "Leillo", and Fanny Tovar.
Where you watch

Where you watch Email alert

Yes, it is available and reported below. Use the alert button to get notified when higher quality versions are available.

Download and stream reports

Can I download or stream I'm No Longer Here? Yes. Reports of pirated torrents and streams are available below.
When will I'm No Longer Here be available on digital platforms like iTunes or Amazon? It's set for a May 27, 2020 release. This likely includes iTunes and Amazon unless it is an exclusive Netflix, or similar, release. Physical versions on Blu-Ray or DVD will likely follow.

May 30, 2020
Im.No.Longer.Here.2019.SPANISH.ENSUBBED.1080p.NF.WEBRip.DDP5.1.x264-CM
Video and audio quality: 5/5 | Source: Official web stream

Submitted by: Mr. Meeseeks | Trust Rank level: Supreme Member
Format: Torrent | Site: RARBG
Video ID : 1 Format : AVC Format/Info : Advanced Video Codec Format profile : High@L4 Format settings : CABAC / 3 Ref Frames Format settings, CABAC : Yes Format settings, Reference frames : 3 frames Codec ID : V_MPEG4/ISO/AVC Duration : 1 h 52 min Bit rate : 6 621 kb/s Width : 1 920 pixels Height : 1 080 pixels Display aspect ratio : 16:9 Frame rate mode : Constant Frame rate : 23.976 (24000/1001) FPS Color space : YUV Chroma subsampling : 4:2:0 Bit depth : 8 bits Scan type : Progressive Bits/(Pixel*Frame) : 0.133 Stream size : 5.19 GiB (91%) Default : Yes Forced : No Audio ID : 2 Format : E-AC-3 Format/Info : Enhanced AC-3 Commercial name : Dolby Digital Plus Codec ID : A_EAC3 Duration : 1 h 52 min Bit rate mode : Constant Bit rate : 640 kb/s Channel(s) : 6 channels Channel layout : L R C LFE Ls Rs Sampling rate : 48.0 kHz Frame rate : 31.250 FPS (1536 SPF) Compression mode : Lossy Stream size : 514 MiB (9%) Language : Spanish Service kind : Complete Main Default : Yes Forced : No Text ID : 3 Format : UTF-8 Codec ID : S_TEXT/UTF8 Codec ID/Info : UTF-8 Plain Text Duration : 1 h 51 min Bit rate : 42 b/s Count of elements : 973 Stream size : 34.4 KiB (0%) Language : English Default : Yes Forced : Yes

Videos Add media

I'm No Longer Here | Official Trailer | Netflix
I'm No Longer Here | Official Trailer | Netflix