I Used To Go Here

I Used To Go Here

MavoyMavoy   November 24, 2019  
Add to list
I Used To Go Here

Movie info

Title
Confirmed and upcoming movie titles only! Search before adding to avoid dupes.
I Used To Go Here
Year
The year the movie is set to be released.
2020
Director
Genre
Pick one or multiple movie genres.
Digital release
Official digital release date on services such as iTunes, Amazon, Netflix. It's the first known release date, without any country restriction. So if it's out on iTunes Russia first, this would be the digital release date.
August 07, 2020
Description
Kate Conklin (Gillian Jacobs) is dealing with called off engagement and failure of her debut book. Meanwhile her old professor David Kirkpatrick (Jemaine Clement) is asking her to come back to her alma mater to do a reading.

Myself, I am mostly interested in this film as a huge fan of Clement.
Where you watch

Where you watch Email alert

Yes, it is available and reported below. Use the alert button to get notified when higher quality versions are available.

Download and stream reports

Can I download or stream I Used To Go Here? Yes. Reports of pirated torrents and streams are available below.
When will I Used To Go Here be available on digital platforms like iTunes or Amazon? It's set for a August 07, 2020 release. This likely includes iTunes and Amazon unless it is an exclusive Netflix, or similar, release. Physical versions on Blu-Ray or DVD will likely follow.

August 07, 2020
I.Used.to.Go.Here.2020.1080p.WEB-DL.DD5.1.H264-FGT
Video and audio quality: 5/5 | Source: Official web stream

Submitted by: Mr. Meeseeks | Trust Rank level: Supreme Member
Format: Torrent | Site: RARBG
Video ID : 1 Format : AVC Format/Info : Advanced Video Codec Format profile : High@L4 Format settings : CABAC / 4 Ref Frames Format settings, CABAC : Yes Format settings, Reference frames : 4 frames Codec ID : V_MPEG4/ISO/AVC Duration : 1 h 27 min Bit rate : 5 197 kb/s Width : 1 916 pixels Height : 1 036 pixels Display aspect ratio : 1.85:1 Frame rate mode : Constant Frame rate : 23.976 (24000/1001) FPS Color space : YUV Chroma subsampling : 4:2:0 Bit depth : 8 bits Scan type : Progressive Bits/(Pixel*Frame) : 0.109 Stream size : 3.19 GiB (93%) Title : I.Used.to.Go.Here.2020.1080p.WEB-DL.DD5.1.H264-FGT Language : English Default : Yes Forced : No Color range : Limited Color primaries : BT.709 Transfer characteristics : BT.709 Matrix coefficients : BT.709 Audio ID : 2 Format : AC-3 Format/Info : Audio Coding 3 Commercial name : Dolby Digital Codec ID : A_AC3 Duration : 1 h 27 min Bit rate mode : Constant Bit rate : 384 kb/s Channel(s) : 6 channels Channel layout : L R C LFE Ls Rs Sampling rate : 48.0 kHz Frame rate : 31.250 FPS (1536 SPF) Bit depth : 16 bits Compression mode : Lossy Stream size : 241 MiB (7%) Title : I.Used.to.Go.Here.2020.1080p.WEB-DL.DD5.1.H264-FGT Language : English Service kind : Complete Main Default : Yes Forced : No Text ID : 3 Format : UTF-8 Codec ID : S_TEXT/UTF8 Codec ID/Info : UTF-8 Plain Text Duration : 1 h 20 min Bit rate : 64 b/s Count of elements : 1131 Stream size : 38.4 KiB (0%) Language : English Default : Yes Forced : No

Videos Add media

I Used To Go Here Official Trailer Starring Gillian Jacobs, Jemaine Clement, Hannah Marks
I Used To Go Here Official Trailer Starring Gillia...