I Got The Hook Up 2

I Got The Hook Up 2

Mr. MeeseeksMr. Meeseeks   June 22, 2019  
News (0)
Add to list
I Got The Hook Up 2

Movie info

TITLE
Confirmed and upcoming movie titles only! Search before adding to avoid dupes.
YEAR
The year the movie is set to be released.
2019
DIRECTOR
GENRE
Pick one or multiple movie genres.
CINEMA
First cinema release date in any country.
July 12, 2019
DESCRIPTION
Starring Master P, Romeo Miller, Sheryl Underwood, John Witherspoon, Michael Blackson, Fatboy SSE, DC Young Fly, Young Jeezy, Clifton Powell, Jess Hilarious, Kash Doll, YFN Lucci, Apryl Jones, KJ Smith, Erica Mena, Juju, Webbie, Angel Love, Kyle Massey, Christopher Massey, Tangie Ambrose, McKinley Freeman, and Cymphonique Miller.
WHERE YOU WATCH

Where you watch Email alert

The movie is online and reported below, Use the alert button to get notified when higher quality versions are available.

Reports

July 12, 2019
I.Got.The.Hook.Up.2.2019.1080p.WEB-DL.DD2.0.H264-FGT
Video and audio quality: 5/5 | Source: Official web stream

Submitted by: Mr. Meeseeks | Trust Rank level: Supreme Member
Format: Torrent | Site: RARBG
Video ID : 1 Format : AVC Format/Info : Advanced Video Codec Format profile : [email protected] Format settings : CABAC / 5 Ref Frames Format settings, CABAC : Yes Format settings, ReFrames : 5 frames Codec ID : V_MPEG4/ISO/AVC Duration : 1 h 47 min Bit rate : 4 595 kb/s Width : 1 912 pixels Height : 812 pixels Display aspect ratio : 2.35:1 Frame rate mode : Constant Frame rate : 23.976 FPS Color space : YUV Chroma subsampling : 4:2:0 Bit depth : 8 bits Scan type : Progressive Bits/(Pixel*Frame) : 0.123 Stream size : 3.46 GiB (96%) Title : I.Got.The.Hook.Up.2.2019.1080p.WEB-DL.DD2.0.H264-FGT Language : English Default : Yes Forced : No Color range : Limited Color primaries : BT.709 Transfer characteristics : BT.709 Matrix coefficients : BT.709 Audio ID : 2 Format : AC-3 Format/Info : Audio Coding 3 Commercial name : Dolby Digital Codec ID : A_AC3 Duration : 1 h 47 min Bit rate mode : Constant Bit rate : 192 kb/s Channel(s) : 2 channels Channel layout : L R Sampling rate : 48.0 kHz Frame rate : 31.250 FPS (1536 SPF) Bit depth : 16 bits Compression mode : Lossy Stream size : 148 MiB (4%) Title : I.Got.The.Hook.Up.2.2019.1080p.WEB-DL.DD2.0.H264-FGT Language : English Service kind : Complete Main Default : Yes Forced : No Text ID : 3 Format : UTF-8 Codec ID : S_TEXT/UTF8 Codec ID/Info : UTF-8 Plain Text Duration : 1 h 47 min Bit rate : 149 b/s Count of elements : 2792 Stream size : 118 KiB (0%) Language : English Default : Yes Forced : No

Videos Add media

I Got The Hook-Up 2 "OFFICIAL TRAILER" (HD)
I Got The Hook-Up 2 "OFFICIAL TRAILER" (HD)

Movie News

There are no member news items for this movie.
To write a comment please register or