I Carry You With Me

I Carry You With Me

Hot
Mr. MeeseeksMr. Meeseeks   October 03, 2020  
Add to list
I Carry You With Me

Movie info

Title
Confirmed and upcoming movie titles only! Search before adding to avoid dupes.
I Carry You With Me
Year
The year the movie is set to be released.
2021
Director
Heidi Ewing
Genre
Pick one or multiple movie genres.
Cinema release
First cinema release date in any country.
January 08, 2021
Description
Starring Armando Espitia, Christian Vázquez, and Michelle Rodríguez.
Where you watch

Where you watch Email alert

Yes, it is available and reported below. Use the alert button to get notified when higher quality versions are available.

Download and stream reports

Is there a I Carry You With Me torrent? Yes. Reports are available below.
When will I Carry You With Me be available on digital platforms like iTunes, Amazon or Apple+? As of now, there's no release date announced. This includes iTunes, Amazon, Blu-Ray and DVD.

September 17, 2021
I.Carry.You.With.Me.2020.SPANISH.1080p.WEBRip.DD5.1.x264-NOGRP
Video and audio quality: 5/5 | Source: Official web stream

Submitted by: Mr. Meeseeks | Trust Rank level: Supreme Member
Format: Torrent | Site: RARBG
Video ID : 1 Format : AVC Format/Info : Advanced Video Codec Format profile : High@L4 Format settings : CABAC / 4 Ref Frames Format settings, CABAC : Yes Format settings, Reference frames : 4 frames Codec ID : V_MPEG4/ISO/AVC Duration : 1 h 51 min Bit rate : 10.2 Mb/s Width : 1 916 pixels Height : 1 076 pixels Display aspect ratio : 16:9 Frame rate mode : Constant Frame rate : 23.976 (24000/1001) FPS Color space : YUV Chroma subsampling : 4:2:0 Bit depth : 8 bits Scan type : Progressive Bits/(Pixel*Frame) : 0.206 Stream size : 7.91 GiB (96%) Default : Yes Forced : No Color range : Limited Color primaries : BT.709 Transfer characteristics : BT.709 Matrix coefficients : BT.709 Audio ID : 2 Format : AC-3 Format/Info : Audio Coding 3 Commercial name : Dolby Digital Codec ID : A_AC3 Duration : 1 h 51 min Bit rate mode : Constant Bit rate : 384 kb/s Channel(s) : 6 channels Channel layout : L R C LFE Ls Rs Sampling rate : 48.0 kHz Frame rate : 31.250 FPS (1536 SPF) Compression mode : Lossy Stream size : 306 MiB (4%) Title : Spanish Language : Spanish Service kind : Complete Main Default : No Forced : No Text ID : 3 Format : UTF-8 Codec ID : S_TEXT/UTF8 Codec ID/Info : UTF-8 Plain Text Duration : 1 h 48 min Bit rate : 30 b/s Count of elements : 867 Stream size : 24.4 KiB (0%) Language : English Default : Yes Forced : No

Videos Add media

I CARRY YOU WITH ME (TE LLEVO CONMIGO) | Official Trailer (2021)
I CARRY YOU WITH ME (TE LLEVO CONMIGO) | Official ...