Human Flow

Human Flow

Mr. MeeseeksMr. Meeseeks   January 09, 2018  
News (0)
Add to list
Human Flow

Movie info

TITLE
Confirmed and upcoming movie titles only! Search before adding to avoid dupes.
YEAR
The year the movie is set to be released.
2017
DIRECTOR
GENRE
Pick one or multiple movie genres.
CINEMA
First cinema release date in any country.
October 02, 2017
DESCRIPTION
The latest documentary from Ai Weiwei om the modern refugee crisis has been receiving critical acclaim since its limited release at the end of 2017. Today the film has been mad eavailable on digital platforms so please enjoy, leak coming soon.
WHERE YOU WATCH

Where you watch Email alert

The movie is online and reported below, Use the alert button to get notified when higher quality versions are available.

Reports

April 06, 2018
Human.Flow.2017.720p.BluRay.x264-EiDER
Video and audio quality: 5/5 | Source: BluRay

Submitted by: Mr. Meeseeks | Trust Rank level: Legend Member
Format: Torrent | Site: RARBG
Video ID : 1 Format : AVC Format/Info : Advanced Video Codec Format profile : [email protected] Format settings : CABAC / 5 Ref Frames Format settings, CABAC : Yes Format settings, RefFrames : 5 frames Codec ID : V_MPEG4/ISO/AVC Duration : 2 h 21 min Bit rate : 5 138 kb/s Width : 1 280 pixels Height : 688 pixels Display aspect ratio : 1.85:1 Frame rate mode : Constant Frame rate : 23.976 (24000/1001) FPS Color space : YUV Chroma subsampling : 4:2:0 Bit depth : 8 bits Scan type : Progressive Bits/(Pixel*Frame) : 0.243 Stream size : 5.06 GiB (77%) Audio ID : 2 Format : DTS Format/Info : Digital Theater Systems Mode : 16 Format settings, Endianness : Big Codec ID : A_DTS Duration : 2 h 21 min Bit rate mode : Constant Bit rate : 1 509 kb/s Channel(s) : 6 channels Channel positions : Front: L C R, Side: L R, LFE Sampling rate : 48.0 kHz Frame rate : 93.750 FPS (512 SPF) Bit depth : 24 bits Compression mode : Lossy Stream size : 1.49 GiB (23%) Language : English Default : Yes Forced : No Text ID : 3 Format : UTF-8 Codec ID : S_TEXT/UTF8 Codec ID/Info : UTF-8 Plain Text Duration : 2 h 15 min Bit rate : 14 b/s Count of elements : 511 Stream size : 14.5 KiB (0%) Language : English Default : No Forced : No
February 19, 2018
Human.Flow.2017.WEBRip.x264-RBB
Video and audio quality: 5/5 | Source: Official web stream

Submitted by: Mr. Meeseeks | Trust Rank level: Legend Member
Format: Torrent | Site: ExtraTorrent
Size: 1.30 GB Video: MP4 | 720×400 | 1200 kb/s Audio: English | AAC | 128 kb/s Runtime: 2 h 20 min Subtitles: N/A

Videos Add media

Human Flow Official Trailer [HD] | Amazon Studios
Human Flow Official Trailer [HD] | Amazon Studios

Movie News

There are no member news items for this movie.
To write a comment please register or