How to Talk to Girls at Parties

How to Talk to Girls at Parties

JuancoJuanco   September 02, 2017  
News (0)
Add to list
How to Talk to Girls at Parties

Movie info

TITLE
Confirmed and upcoming movie titles only! Search before adding to avoid dupes.
YEAR
The year the movie is set to be released.
2017
GENRE
Pick one or multiple movie genres.
DESCRIPTION
Great Britain, 1977. A shy teenage punk rocker and his two friends sneak into a party where they meet a bunch of strange, ethereal girls; at first they think that it is a sect, but they soon realize that they are actually from another world, from outer space...
WHERE YOU WATCH

Where you watch Email alert

The movie is online and reported below, Use the alert button to get notified when higher quality versions are available.

Reports

June 04, 2018
How.to.Talk.to.Girls.at.Parties.2017.720p.BluRay.x264.DTS-HDC
Video and audio quality: 5/5 | Source: BluRay

Submitted by: Mr. Meeseeks | Trust Rank level: Legend Member
Format: Torrent | Site: RARBG
Video ID : 1 Format : AVC Format/Info : Advanced Video Codec Format profile : [email protected] Format settings : CABAC / 9 Ref Frames Format settings, CABAC : Yes Format settings, ReFrames : 9 frames Codec ID : V_MPEG4/ISO/AVC Duration : 1 h 42 min Bit rate : 8 000 kb/s Width : 1 280 pixels Height : 694 pixels Display aspect ratio : 1.85:1 Frame rate mode : Constant Frame rate : 23.976 (24000/1001) FPS Color space : YUV Chroma subsampling : 4:2:0 Bit depth : 8 bits Scan type : Progressive Bits/(Pixel*Frame) : 0.376 Stream size : 5.72 GiB (84%) Title : FFlipped @ HDChina Writing library : x264 core 142 r2431+42 c69a006 tMod [[email protected] X86_64] Default : Yes Forced : No Audio ID : 2 Format : DTS Format/Info : Digital Theater Systems Codec ID : A_DTS Duration : 1 h 42 min Bit rate mode : Constant Bit rate : 1 509 kb/s Channel(s) : 6 channels Channel positions : Front: L C R, Side: L R, LFE Sampling rate : 48.0 kHz Frame rate : 93.750 FPS (512 SPF) Bit depth : 16 bits Compression mode : Lossy Stream size : 1.08 GiB (16%) Language : English Default : Yes Forced : No Menu 00:00:00.000 : en:00:00:00.000 00:09:36.910 : en:00:09:36.910 00:16:37.205 : en:00:16:37.205 00:24:44.650 : en:00:24:44.650 00:32:50.802 : en:00:32:50.802 00:41:36.244 : en:00:41:36.244 00:49:55.743 : en:00:49:55.743 00:59:40.243 : en:00:59:40.243 01:08:32.859 : en:01:08:32.859 01:15:41.245 : en:01:15:41.245 01:22:48.839 : en:01:22:48.839 01:33:20.053 : en:01:33:20.053
May 23, 2018
How.to.Talk.to.Girls.at.Parties.2017.HDRip.XviD.AC3-EVO
Video and audio quality: 5/5 | Source: Official web stream

Submitted by: Mr. Meeseeks | Trust Rank level: Legend Member
Format: Torrent | Site: 1337x
ViDEO: 1550 Kbps RESOLUTiON: 720x384 RUNTiME: 1h 42m 43s SUBTiTLES: No. AUDiO: 384 Kbps AC3 5.1 LANGUAGE: ENGLiSH ENCODER: DdHD

Videos Add media

How To Talk To Girls At Parties | Official Trailer HD | A24
How To Talk To Girls At Parties | Official Trailer...
HOW TO TALK TO GIRLS AT PARTIES Official Trailer (2017) Elle Fanning, Nicole Kidman Movie HD
HOW TO TALK TO GIRLS AT PARTIES Official Trailer (...

Movie News

There are no member news items for this movie.
To write a comment please register or