How to Build a Girl

How to Build a Girl

Hot
DaxDax   August 31, 2019  
Add to list
How to Build a Girl

Movie info

Title
Confirmed and upcoming movie titles only! Search before adding to avoid dupes.
How to Build a Girl
Year
The year the movie is set to be released.
2020
Director
Coky Giedroyc
Genre
Pick one or multiple movie genres.
Digital release
Official digital release date on services such as iTunes, Amazon, Netflix. It's the first known release date, without any country restriction. So if it's out on iTunes Russia first, this would be the digital release date.
May 08, 2020
Description
Starring Beanie Feldstein, Paddy Considine, Sarah Solemani, Alfie Allen, Frank Dillane, Laurie Kynaston, Jameela Jamil, Arinzé Kene, Tadhg Murphy, Lucy Punch, Ziggy Heath, Lily Allen, Sharon Horgan, Michael Sheen, Bobby Schofield, Chris O'Dowd, Joanna Scanlan and Emma Thompson. This film premiered at the 2019 Toronto International Film Festival.
Where you watch

Where you watch Email alert

Yes, it is available and reported below. Use the alert button to get notified when higher quality versions are available.

Download and stream reports

Is there a How to Build a Girl torrent? Yes. Reports are available below.
When will How to Build a Girl be available on VOD? It's set for a May 08, 2020 release.

August 16, 2020
How.To.Build.A.Girl.2019.1080p.BluRay.x264.DTS-HD.MA.5.1-FGT
Video and audio quality: 5/5 | Source: BluRay

Submitted by: Mr. Meeseeks | Trust Rank level: Supreme Member
Format: Torrent | Site: RARBG
Video ID : 1 Format : AVC Format/Info : Advanced Video Codec Format profile : High@L4.1 Format settings : CABAC / 4 Ref Frames Format settings, CABAC : Yes Format settings, Reference frames : 4 frames Codec ID : V_MPEG4/ISO/AVC Duration : 1 h 43 min Bit rate : 11.5 Mb/s Width : 1 920 pixels Height : 1 036 pixels Display aspect ratio : 1.85:1 Frame rate mode : Constant Frame rate : 24.000 FPS Color space : YUV Chroma subsampling : 4:2:0 Bit depth : 8 bits Scan type : Progressive Bits/(Pixel*Frame) : 0.241 Stream size : 8.34 GiB (85%) Title : How.To.Build.A.Girl.2019.1080p.BluRay.x264.DTS-HD.MA.5.1-FGT Writing library : x264 core 148 r2748 97eaef2 Encoding settings : cabac=1 / ref=4 / deblock=1:-2:-2 / analyse=0x3:0x113 / me=umh / subme=9 / psy=1 / psy_rd=1.00:0.15 / mixed_ref=1 / me_range=16 / chroma_me=1 / trellis=2 / 8x8dct=1 / cqm=0 / deadzone=21,11 / fast_pskip=1 / chroma_qp_offset=-3 / threads=72 / lookahead_threads=3 / sliced_threads=0 / nr=0 / decimate=1 / interlaced=0 / bluray_compat=0 / constrained_intra=0 / bframes=3 / b_pyramid=2 / b_adapt=1 / b_bias=0 / direct=3 / weightb=1 / open_gop=0 / weightp=2 / keyint=250 / keyint_min=25 / scenecut=40 / intra_refresh=0 / rc_lookahead=50 / rc=2pass / mbtree=1 / bitrate=11500 / ratetol=1.0 / qcomp=0.60 / qpmin=0 / qpmax=69 / qpstep=4 / cplxblur=20.0 / qblur=0.5 / vbv_maxrate=31250 / vbv_bufsize=31250 / nal_hrd=none / filler=0 / ip_ratio=1.40 / aq=1:1.00 Language : English Default : Yes Forced : No Audio ID : 2 Format : DTS XLL Format/Info : Digital Theater Systems Commercial name : DTS-HD Master Audio Codec ID : A_DTS Duration : 1 h 43 min Bit rate mode : Variable Bit rate : 2 058 kb/s Channel(s) : 6 channels Channel layout : C L R Ls Rs LFE Sampling rate : 48.0 kHz Frame rate : 93.750 FPS (512 SPF) Bit depth : 16 bits Compression mode : Lossless Stream size : 1.49 GiB (15%) Title : How.To.Build.A.Girl.2019.1080p.BluRay.x264.DTS-HD.MA.5.1-FGT Language : English Default : Yes Forced : No
May 08, 2020
How.to.Build.a.Girl.2019.1080p.WEBRip.x264-RARBG
Video and audio quality: 5/5 | Source: Official web stream

Submitted by: Denzel | Trust Rank level: Standard member
Format: Torrent | Site: rarbg

Videos Add media

How to Build a Girl - Official Trailer | HD | IFC Films
How to Build a Girl - Official Trailer | HD | IFC ...