House of Hummingbird

House of Hummingbird

Mr. MeeseeksMr. Meeseeks   May 30, 2020  
Add to list
House of Hummingbird

Movie info

Title
Confirmed and upcoming movie titles only! Search before adding to avoid dupes.
House of Hummingbird
Year
The year the movie is set to be released.
2019
Director
Bora Kim
Genre
Pick one or multiple movie genres.
Cinema release
First cinema release date in any country.
August 29, 2019
Digital release
Official digital release date on services such as iTunes, Amazon, Netflix. It's the first known release date, without any country restriction. So if it's out on iTunes Russia first, this would be the digital release date.
June 26, 2020
Description
Starring Ji-hu Park, Sae-byuk Kim, Seung-yeon Lee, and In-gi Jeong.
Where you watch

Where you watch Email alert

Yes, it is available and reported below. Use the alert button to get notified when higher quality versions are available.

Download and stream reports

Is there a House of Hummingbird torrent? Yes. Reports are available below.
When will House of Hummingbird be available on VOD? It's set for a June 26, 2020 release.

August 14, 2020
House.Of.Hummingbird.2018.KOREAN.1080p.BluRay.x264.DTS-PTH
Video and audio quality: 5/5 | Source: BluRay

Submitted by: Mr. Meeseeks | Trust Rank level: Supreme Member
Format: Torrent | Site: RARBG
Video ID : 1 Format : AVC Format/Info : Advanced Video Codec Format profile : High@L4.1 Format settings : CABAC / 4 Ref Frames Format settings, CABAC : Yes Format settings, Reference frames : 4 frames Codec ID : V_MPEG4/ISO/AVC Duration : 2 h 19 min Bit rate : 10.2 Mb/s Width : 1 920 pixels Height : 1 036 pixels Display aspect ratio : 1.85:1 Frame rate mode : Constant Frame rate : 24.000 FPS Color space : YUV Chroma subsampling : 4:2:0 Bit depth : 8 bits Scan type : Progressive Bits/(Pixel*Frame) : 0.213 Stream size : 9.86 GiB (81%) Writing library : x264 core 160 r3007+53 ab26477 t_mod_New [(8 & 10)-bit@all X86_64] Encoding settings : cabac=1 / ref=4 / deblock=1:-3:-3 / analyse=0x3:0x133 / me=umh / subme=11 / psy=1 / fade_compensate=0.00 / psy_rd=1.00:0.00 / mixed_ref=1 / me_range=48 / chroma_me=1 / trellis=2 / 8x8dct=1 / cqm=0 / deadzone=21,11 / fast_pskip=0 / chroma_qp_offset=-3 / threads=9 / lookahead_threads=1 / sliced_threads=0 / nr=0 / decimate=1 / interlaced=0 / bluray_compat=0 / constrained_intra=0 / fgo=0 / bframes=9 / b_pyramid=2 / b_adapt=2 / b_bias=0 / direct=3 / weightb=1 / open_gop=0 / weightp=2 / keyint=240 / keyint_min=1 / scenecut=40 / intra_refresh=0 / rc=crf / mbtree=0 / crf=17.0000 / qcomp=0.70 / qpmin=0:0:0 / qpmax=69:69:69 / qpstep=4 / ip_ratio=1.40 / pb_ratio=1.30 / aq=3:0.90 / aq-sensitivity=10.00 / aq-factor=1.00:1.00:1.00 / aq2=0 / aq3=0 Default : Yes Forced : No Audio ID : 2 ID in the original source medium : 4352 (0x1100) Format : DTS XLL Format/Info : Digital Theater Systems Commercial name : DTS-HD Master Audio Codec ID : A_DTS Duration : 2 h 19 min Bit rate mode : Variable Bit rate : 2 285 kb/s Channel(s) : 6 channels Channel layout : C L R Ls Rs LFE Sampling rate : 48.0 kHz Frame rate : 93.750 FPS (512 SPF) Bit depth : 16 bits Compression mode : Lossless Stream size : 2.22 GiB (18%) Language : Korean Default : Yes Forced : No Original source medium : Blu-ray
July 19, 2020
House of Hummingbird (2019) 720p WEB-DL x264 Ganool
Video and audio quality: 5/5 | Source: Official web stream

Submitted by: Ivana 🌿 | Trust Rank level: Supreme Member
Format: Torrent | Site: TorrentGalaxy
Duration: 2hs 15min Language: Korean

Videos Add media

HOUSE OF HUMMINGBIRD (2020) Official Trailer | Korean Drama
HOUSE OF HUMMINGBIRD (2020) Official Trailer | Kor...