Hot Air

Hot Air

Mr. MeeseeksMr. Meeseeks   August 10, 2019  
Add to list
Hot Air

Movie info

TITLE
Confirmed and upcoming movie titles only! Search before adding to avoid dupes.
Hot Air
YEAR
The year the movie is set to be released.
2019
DIRECTOR
GENRE
Pick one or multiple movie genres.
DIGITAL RELEASE
Official digital release date on services such as iTunes, Amazon, Netflix. It's the first known release date, without any country restriction. So if it's out on iTunes Russia first, this would be the digital release date.
August 23, 2019
DESCRIPTION
Starring Steve Coogan, Taylor Russell, Neve Campbell, Pico Alexander, Skylar Astin, Judith Light, Lawrence Gilliard Jr., Griffin Newman, and Judah Friedlander.
WHERE YOU WATCH

Where you watch Email alert

The movie is online and reported below, Use the alert button to get notified when higher quality versions are available.

Reports

Is Hot Air available online? Yes. Reports of pirated torrents and streams are available below.
When will Hot Air be available on digital platforms like iTunes or Amazon? It's set for a August 23, 2019 release. This likely includes iTunes and Amazon unless it is an exclusive Netflix, or similar, release. Physical versions on Blu-Ray or DVD will likely follow.

August 22, 2019
Hot.Air.2018.1080p.WEB-DL.DD5.1.H264-FGT
Video and audio quality: 5/5 | Source: Official web stream

Submitted by: Mr. Meeseeks | Trust Rank level: Supreme Member
Format: Torrent | Site: RARBG
Video ID : 1 Format : AVC Format/Info : Advanced Video Codec Format profile : [email protected] Format settings : CABAC / 4 Ref Frames Format settings, CABAC : Yes Format settings, Reference frames : 4 frames Codec ID : V_MPEG4/ISO/AVC Duration : 1 h 43 min Bit rate : 5 081 kb/s Width : 1 912 pixels Height : 1 028 pixels Display aspect ratio : 1.85:1 Frame rate mode : Constant Frame rate : 23.976 (24000/1001) FPS Color space : YUV Chroma subsampling : 4:2:0 Bit depth : 8 bits Scan type : Progressive Bits/(Pixel*Frame) : 0.108 Stream size : 3.68 GiB (93%) Title : Hot.Air.2018.1080p.WEB-DL.DD5.1.H264-FGT Language : English Default : Yes Forced : No Color range : Limited Color primaries : BT.709 Transfer characteristics : BT.709 Matrix coefficients : BT.709 Audio ID : 2 Format : AC-3 Format/Info : Audio Coding 3 Commercial name : Dolby Digital Codec ID : A_AC3 Duration : 1 h 43 min Bit rate mode : Constant Bit rate : 384 kb/s Channel(s) : 6 channels Channel layout : L R C LFE Ls Rs Sampling rate : 48.0 kHz Frame rate : 31.250 FPS (1536 SPF) Bit depth : 16 bits Compression mode : Lossy Stream size : 285 MiB (7%) Title : Hot.Air.2018.1080p.WEB-DL.DD5.1.H264-FGT Language : English Service kind : Complete Main Default : Yes Forced : No

Videos Add media

Hot Air OFFICIAL TRAILER (2019)
Hot Air OFFICIAL TRAILER (2019)