Home Again

Home Again

Ramona FlowersRamona Flowers   August 30, 2017  
News (0)
Add to list
Home Again

Movie info

TITLE
Confirmed and upcoming movie titles only! Search before adding to avoid dupes.
YEAR
The year the movie is set to be released.
2017
GENRE
Pick one or multiple movie genres.
CINEMA
First cinema release date in any country.
September 08, 2017
DESCRIPTION
"Home Again" is the debut feature film from writer/director Hallie Meyers-Shyer, the daughter of American director Nancy Meyers. The romantic comedy film stars Reese Witherspoon as a single mother who decides to let three young and needy filmmakers live in her house. It will be released in the United States on September 8th, 2017, with a supporting cast featuring Nat Wolff, Jon Rudnitsky, Pico Alexander, Michael Sheen, and Candice Bergen.
WHERE YOU WATCH

Where you watch Email alert

The movie is online and reported below, Use the alert button to get notified when higher quality versions are available.

Reports

April 07, 2018
Home.Again.2017.1080p.BluRay.x264.DTS-HD.MA.5.1-MT
Video and audio quality: 5/5 | Source: BluRay

Submitted by: Mr. Meeseeks | Trust Rank level: Legend Member
Format: Torrent | Site: RARBG
Video ID : 1 Format : AVC Format/Info : Advanced Video Codec Format profile : [email protected] Format settings : CABAC / 4 Ref Frames Format settings, CABAC : Yes Format settings, ReFrames : 4 frames Codec ID : V_MPEG4/ISO/AVC Duration : 1 h 37 min Bit rate : 13.7 Mb/s Width : 1 920 pixels Height : 1 036 pixels Display aspect ratio : 1.85:1 Frame rate mode : Constant Frame rate : 23.976 (24000/1001) FPS Color space : YUV Chroma subsampling : 4:2:0 Bit depth : 8 bits Scan type : Progressive Bits/(Pixel*Frame) : 0.288 Stream size : 9.34 GiB (81%) Audio ID : 2 Format : DTS Format/Info : Digital Theater Systems Format profile : MA / Core Codec ID : A_DTS Duration : 1 h 37 min Bit rate mode : Variable / Constant Bit rate : 3 171 kb/s / 1 509 kb/s Channel(s) : 6 channels Channel positions : Front: L C R, Side: L R, LFE Sampling rate : 48.0 kHz Frame rate : 93.750 FPS (512 SPF) Bit depth : 24 bits Compression mode : Lossless / Lossy Stream size : 2.15 GiB (19%) Language : English Default : Yes Forced : No
November 21, 2017
Home.Again.2017.1080p.WEB-DL.DD5.1.H264-FGT
Video and audio quality: 5/5 | Source: Official web stream

Submitted by: Mavoy | Trust Rank level: Standard member
Format: Official stream | Site: RarBG
Official 1080p copy

Videos Add media

Home Again - Official Trailer - In Theaters September
Home Again - Official Trailer - In Theaters Septem...

Movie News

There are no member news items for this movie.
To write a comment please register or