Have a Nice Day

Have a Nice Day

Mr. MeeseeksMr. Meeseeks   December 17, 2017  
News (0)
Add to list
Have a Nice Day

Movie info

TITLE
Confirmed and upcoming movie titles only! Search before adding to avoid dupes.
YEAR
The year the movie is set to be released.
2017
DIRECTOR
GENRE
Pick one or multiple movie genres.
CINEMA
First cinema release date in any country.
January 12, 2018
DESCRIPTION
The latest story from Chinese animator Liu Jian, “Have a Nice Day” has been a favorite at many festivals throughout 2017, and will finally be in theaters this January. The story follows a driver low on funds, who steals over a miliion dollars from his boss. Every scene which follows gradually intensifies, as he continues to find himself in circumstances which threaten the life of him and his fiancée.
WHERE YOU WATCH

Where you watch Email alert

The movie is online and reported below, Use the alert button to get notified when higher quality versions are available.

Reports

June 03, 2018
Have a Nice Day 2017 LIMITED DVDRip x264-BiPOLAR
Video and audio quality: 5/5 | Source: DVD

Submitted by: Mr. Meeseeks | Trust Rank level: Legend Member
Format: Torrent | Site: TorrentingMe
Video < 720x406 316kb/s @ crf19 23.976fps
April 28, 2018
Have A Nice Day 2017 720p HC WEB-DL x264 AAC-eSc
Video and audio quality: 5/5 | Source: Official web stream

Submitted by: Mr. Meeseeks | Trust Rank level: Legend Member
Format: Torrent | Site: TorrentingMe
General Format : MPEG-4 Format profile : Base Media / Version 2 Codec ID : mp42 (isom/iso2/avc1/mp41) File size : 659 MiB Duration : 1 h 14 min Overall bit rate mode : Variable Overall bit rate : 1 233 kb/s Hardcoded Subtitles : English Encoded date : UTC 2018-04-28 03:11:59 Tagged date : UTC 2018-04-28 03:32:48 Video ID : 1 Format : AVC Format/Info : Advanced Video Codec Format profile : [email protected] Format settings : CABAC / 4 Ref Frames Format settings, CABAC : Yes Format settings, RefFrames : 4 frames Codec ID : avc1 Codec ID/Info : Advanced Video Coding Duration : 1 h 14 min Bit rate : 1 100 kb/s Width : 1 280 pixels Height : 720 pixels Display aspect ratio : 16:9 Frame rate mode : Variable Frame rate : 24.000 FPS Minimum frame rate : 12.048 FPS Maximum frame rate : 24.390 FPS Color space : YUV Chroma subsampling : 4:2:0 Bit depth : 8 bits Scan type : Progressive Bits/(Pixel*Frame) : 0.050 Stream size : 588 MiB (89%) Writing library : x264 core 142 r2479 dd79a61 Encoding settings : cabac=1 / ref=3 / deblock=1:-1:-1 / analyse=0x3:0x113 / me=hex / subme=7 / psy=1 / psy_rd=1.00:0.15 / mixed_ref=1 / me_range=16 / chroma_me=1 / trellis=1 / 8x8dct=1 / cqm=0 / deadzone=21,11 / fast_pskip=1 / chroma_qp_offset=-3 / threads=12 / lookahead_threads=2 / sliced_threads=0 / nr=0 / decimate=1 / interlaced=0 / bluray_compat=0 / constrained_intra=0 / bframes=3 / b_pyramid=2 / b_adapt=1 / b_bias=0 / direct=1 / weightb=1 / open_gop=0 / weightp=2 / keyint=240 / keyint_min=24 / scenecut=40 / intra_refresh=0 / rc_lookahead=40 / rc=2pass / mbtree=1 / bitrate=1100 / ratetol=1.0 / qcomp=0.60 / qpmin=0 / qpmax=69 / qpstep=4 / cplxblur=20.0 / qblur=0.5 / vbv_maxrate=62500 / vbv_bufsize=78125 / nal_hrd=none / filler=0 / ip_ratio=1.40 / aq=1:1.00 Language : English Encoded date : UTC 2018-04-28 03:11:59 Tagged date : UTC 2018-04-28 03:11:59 Color range : Limited Color primaries : BT.709 Transfer characteristics : BT.709 Matrix coefficients : BT.709 Menus : 4 Audio ID : 2 Format : AAC Format/Info : Advanced Audio Codec Format profile : LC Codec ID : mp4a-40-2 Duration : 1 h 14 min Bit rate mode : Variable Bit rate : 126 kb/s Maximum bit rate : 200 kb/s Channel(s) : 2 channels Channel positions : Front: L R Sampling rate : 48.0 kHz Frame rate : 46.875 FPS (1024 SPF) Compression mode : Lossy Stream size : 67.2 MiB (10%) Title : Stereo / Stereo Language : Chinese Default : Yes Alternate group : 1 Encoded date : UTC 2018-04-28 03:11:59 Tagged date : UTC 2018-04-28 03:11:59 Menu ID : 4 Codec ID : text Duration : 1 h 14 min Encoded date : UTC 2018-04-28 03:32:48 Tagged date : UTC 2018-04-28 03:32:48 Menu For : 1 00:00:00.000 : 1 00:07:51.292 : 2 00:12:33.333 : 3 00:18:48.333 : 4 00:25:21.292 : 5 00:31:38.333 : 6 00:38:49.292 : 7 00:44:26.375 : 8 00:50:35.333 : 9 00:56:04.333 : 10 01:02:35.292 : 11 01:09:33.333 : 12 Bit rate mode : VBR

Videos Add media

Have a Nice Day Trailer #1 (2017) | Movieclips Indie
Have a Nice Day Trailer #1 (2017) | Movieclips Ind...

Movie News

There are no member news items for this movie.
To write a comment please register or