Hatchback

Hatchback

Mr. MeeseeksMr. Meeseeks   August 01, 2019  
Add to list
Hatchback

Movie info

TITLE
Confirmed and upcoming movie titles only! Search before adding to avoid dupes.
Hatchback
YEAR
The year the movie is set to be released.
2019
GENRE
Pick one or multiple movie genres.
DIGITAL RELEASE
Official digital release date on services such as iTunes, Amazon, Netflix. It's the first known release date, without any country restriction. So if it's out on iTunes Russia first, this would be the digital release date.
August 20, 2019
DESCRIPTION
Starring Ericson Just, Larkin Bell, Will Gumm, Michelle Gallagher, Myles Cranford, Tommy Senter, Tim O'Leary, Sri Chilukuri, and Michelle Bernard.
WHERE YOU WATCH

Where you watch Email alert

The movie is online and reported below, Use the alert button to get notified when higher quality versions are available.

Reports

Is Hatchback available online? Yes. Reports of pirated torrents and streams are available below.
When will Hatchback be available on digital platforms like iTunes or Amazon? It's set for a August 20, 2019 release. This likely includes iTunes and Amazon unless it is an exclusive Netflix, or similar, release. Physical versions on Blu-Ray or DVD will likely follow.

August 20, 2019
Hatchback.2019.1080p.WEB-DL.DD5.1.H264-FGT
Video and audio quality: 5/5 | Source: Official web stream

Submitted by: Mr. Meeseeks | Trust Rank level: Supreme Member
Format: Torrent | Site: RARBG
Video ID : 1 Format : AVC Format/Info : Advanced Video Codec Format profile : [email protected] Format settings : CABAC / 4 Ref Frames Format settings, CABAC : Yes Format settings, Reference frames : 4 frames Codec ID : V_MPEG4/ISO/AVC Duration : 1 h 33 min Bit rate : 5 165 kb/s Width : 1 912 pixels Height : 1 072 pixels Display aspect ratio : 16:9 Frame rate mode : Constant Frame rate : 23.976 (24000/1001) FPS Color space : YUV Chroma subsampling : 4:2:0 Bit depth : 8 bits Scan type : Progressive Bits/(Pixel*Frame) : 0.105 Stream size : 3.36 GiB (93%) Title : Hatchback.2019.1080p.WEB-DL.DD5.1.H264-FGT Language : English Default : Yes Forced : No Color range : Limited Color primaries : BT.709 Transfer characteristics : BT.709 Matrix coefficients : BT.709 Audio ID : 2 Format : AC-3 Format/Info : Audio Coding 3 Commercial name : Dolby Digital Codec ID : A_AC3 Duration : 1 h 33 min Bit rate mode : Constant Bit rate : 384 kb/s Channel(s) : 6 channels Channel layout : L R C LFE Ls Rs Sampling rate : 48.0 kHz Frame rate : 31.250 FPS (1536 SPF) Bit depth : 16 bits Compression mode : Lossy Stream size : 256 MiB (7%) Title : Hatchback.2019.1080p.WEB-DL.DD5.1.H264-FGT Language : English Service kind : Complete Main Default : Yes Forced : No Text ID : 3 Format : UTF-8 Codec ID : S_TEXT/UTF8 Codec ID/Info : UTF-8 Plain Text Duration : 1 h 32 min Bit rate : 86 b/s Count of elements : 1556 Stream size : 58.5 KiB (0%) Language : English Default : Yes Forced : No

Videos Add media

HATCHBACK Official Trailer
HATCHBACK Official Trailer