Harriet

Harriet

Hot
MavoyMavoy   February 26, 2019  
Add to list
Harriet

Movie info

Title
Confirmed and upcoming movie titles only! Search before adding to avoid dupes.
Harriet
Year
The year the movie is set to be released.
2019
Director
Genre
Pick one or multiple movie genres.
Cinema release
First cinema release date in any country.
November 01, 2019
Digital release
Official digital release date on services such as iTunes, Amazon, Netflix. It's the first known release date, without any country restriction. So if it's out on iTunes Russia first, this would be the digital release date.
January 14, 2020
Description
"Harriet" is a real story of abolitionist Harriet Tubman. Tubman was born into slavery, but she not only escaped, but also made thirteen missions to rescue approximately seventy enslaved people. She was also an armed scout and spy for Union army during the Civil War. The title character will be played by Cynthia Erivo, Broadway actress also known for roles in "Widows" and "Bad Times At El Royale". Janelle Monáe will also appear in the film.
Where you watch

Where you watch Email alert

Yes. The movie is online and reported below, Use the alert button to get notified when higher quality versions are available.

Download and stream reports

Can I download or stream Harriet? Yes. Reports of pirated torrents and streams are available below.
When will Harriet be available on digital platforms like iTunes or Amazon? It's set for a January 14, 2020 release. This likely includes iTunes and Amazon unless it is an exclusive Netflix, or similar, release. Physical versions on Blu-Ray or DVD will likely follow.

February 14, 2020
Harriet.2019.1080p.BluRay.x264.DTS-HD.MA.7.1-FGT
Video and audio quality: 5/5 | Source: BluRay

Submitted by: Mr. Meeseeks | Trust Rank level: Supreme Member
Format: Torrent | Site: RARBG
Video ID : 1 Format : AVC Format/Info : Advanced Video Codec Format profile : High@L4.1 Format settings : CABAC / 5 Ref Frames Format settings, CABAC : Yes Format settings, Reference frames : 5 frames Codec ID : V_MPEG4/ISO/AVC Duration : 2 h 5 min Bit rate : 9 750 kb/s Width : 1 920 pixels Height : 808 pixels Display aspect ratio : 2.40:1 Frame rate mode : Constant Frame rate : 23.976 (24000/1001) FPS Color space : YUV Chroma subsampling : 4:2:0 Bit depth : 8 bits Scan type : Progressive Bits/(Pixel*Frame) : 0.262 Stream size : 8.52 GiB (66%) Title : Harriet.2019.1080p.BluRay.x264.DTS-HD.MA.7.1-FGT Writing library : x264 core 159 r2991 1771b55 Encoding settings : cabac=1 / ref=5 / deblock=1:-3:-3 / analyse=0x3:0x113 / me=umh / subme=8 / psy=1 / psy_rd=1.00:0.00 / mixed_ref=1 / me_range=16 / chroma_me=1 / trellis=1 / 8x8dct=1 / cqm=0 / deadzone=21,11 / fast_pskip=1 / chroma_qp_offset=-2 / threads=25 / lookahead_threads=4 / sliced_threads=0 / nr=0 / decimate=1 / interlaced=0 / bluray_compat=0 / constrained_intra=0 / bframes=3 / b_pyramid=2 / b_adapt=1 / b_bias=0 / direct=3 / weightb=1 / open_gop=0 / weightp=2 / keyint=250 / keyint_min=23 / scenecut=40 / intra_refresh=0 / rc_lookahead=50 / rc=2pass / mbtree=1 / bitrate=9750 / ratetol=1.0 / qcomp=0.60 / qpmin=0 / qpmax=69 / qpstep=4 / cplxblur=20.0 / qblur=0.5 / ip_ratio=1.40 / aq=1:1.00 Language : English Default : Yes Forced : No Audio ID : 2 Format : DTS XLL Format/Info : Digital Theater Systems Commercial name : DTS-HD Master Audio Codec ID : A_DTS Duration : 2 h 5 min Bit rate mode : Variable Bit rate : 5 069 kb/s Channel(s) : 8 channels Channel layout : C L R LFE Lb Rb Lss Rss Sampling rate : 48.0 kHz Frame rate : 93.750 FPS (512 SPF) Bit depth : 24 bits Compression mode : Lossless Stream size : 4.43 GiB (34%) Title : Harriet.2019.1080p.BluRay.x264.DTS-HD.MA.7.1-FGT Language : English Default : Yes Forced : No Text #1 ID : 3 Format : UTF-8 Codec ID : S_TEXT/UTF8 Codec ID/Info : UTF-8 Plain Text Duration : 2 h 1 min Bit rate : 51 b/s Count of elements : 1536 Stream size : 45.8 KiB (0%) Title : English-SRT Language : English Default : Yes Forced : No Text #2 ID : 4 Format : PGS Muxing mode : zlib Codec ID : S_HDMV/PGS Codec ID/Info : Picture based subtitle format used on BDs/HD-DVDs Duration : 2 h 2 min Bit rate : 37.1 kb/s Count of elements : 3414 Stream size : 32.6 MiB (0%) Title : English-PGS Language : English Default : No Forced : No Text #3 ID : 5 Format : PGS Muxing mode : zlib Codec ID : S_HDMV/PGS Codec ID/Info : Picture based subtitle format used on BDs/HD-DVDs Duration : 2 h 3 min Bit rate : 31.1 kb/s Count of elements : 2711 Stream size : 27.6 MiB (0%) Title : Spanish-PGS Language : Spanish Default : No Forced : No Text #4 ID : 6 Format : PGS Muxing mode : zlib Codec ID : S_HDMV/PGS Codec ID/Info : Picture based subtitle format used on BDs/HD-DVDs Duration : 2 h 3 min Bit rate : 34.0 kb/s Count of elements : 2698 Stream size : 30.2 MiB (0%) Title : French-PGS Language : French Default : No Forced : No
January 14, 2020
Harriet.2019.1080p.WEB-DL.H264.AC3-EVO
Video and audio quality: 5/5 | Source: Official web stream

Submitted by: Mavoy | Trust Rank level: Hero member
Format: Torrent | Site: 1337x
Container = Matroska (mkv) Duration = 02:05:32.896 Filesize = 4 GiB Overall bitrate = 4 964 kb/s ViDEO Codec info = AVC High@L4 | V_MPEG4/ISO/AVC Resolution = 1920x800 Display AR = 2.400 | 2.40:1 Bitrate = 4 578 kb/s Framerate = CFR 23.976 Color space = YUV Chroma subsampling = 4:2:0 Encoder = AUDiO Codec info = AC-3 | A_AC3 Channels = 6 Bitrate = CBR 384 kb/s Samplerate = 48.0 kHz Language = English Included subtitles English
January 04, 2020
Harriet.2019.720P.DVDScr.X264.AC3.HQ.Hive-CM8
Video and audio quality: 4/5 | Source: Screener

Submitted by: Mavoy | Trust Rank level: Hero member
Format: Torrent | Site: 1337x
Just a reminder that this film is out on retail in 10 days... Container = Matroska (mkv) Duration = 02:05:04.045 Filesize = 4 GiB Overall bitrate = 4 348 kb/s ViDEO Codec info = AVC High@L5.1 | V_MPEG4/ISO/AVC Resolution = 1280x534 Display AR = 2.397 | 2.40:1 Bitrate = 4 006 kb/s Framerate = CFR 29.970 Color space = YUV Chroma subsampling = 4:2:0 Encoder = AUDiO Codec info = AC-3 | A_AC3 Channels = 2 Bitrate = CBR 256 kb/s Samplerate = 48.0 kHz Language = English
November 01, 2019
Harriet 2019 720p HDCAM-GETB8
Video and audio quality: 1/5 | Source: Camera

Submitted by: Costa | Trust Rank level: Hero member
Format: Torrent | Site: torrentgalaxy
Please be advised this upload has ads cut or watermarked into the video

Videos Add media

HARRIET - Official Trailer [HD] - In Theaters November 1st
HARRIET - Official Trailer [HD] - In Theaters Nove...