Harpoon

Harpoon

Mr. MeeseeksMr. Meeseeks   September 20, 2019  
Add to list
Harpoon

Movie info

Title
Confirmed and upcoming movie titles only! Search before adding to avoid dupes.
Harpoon
Year
The year the movie is set to be released.
2019
Director
Genre
Pick one or multiple movie genres.
Cinema release
First cinema release date in any country.
September 14, 2019
Digital release
Official digital release date on services such as iTunes, Amazon, Netflix. It's the first known release date, without any country restriction. So if it's out on iTunes Russia first, this would be the digital release date.
October 08, 2019
Description
Starring Christopher Gray, Munro Chambers, and Emily Tyra.

Narrated by Brett Gelman.
Where you watch

Where you watch Email alert

Yes, it is available and reported below. Use the alert button to get notified when higher quality versions are available.

Download and stream reports

Can I download or stream Harpoon? Yes. Reports of pirated torrents and streams are available below.
When will Harpoon be available on digital platforms like iTunes or Amazon? It's set for a October 08, 2019 release. This likely includes iTunes and Amazon unless it is an exclusive Netflix, or similar, release. Physical versions on Blu-Ray or DVD will likely follow.

February 14, 2020
Harpoon.2019.1080p.BluRay.REMUX.AVC.DTS-HD.MA.5.1-FGT
Video and audio quality: 5/5 | Source: BluRay

Submitted by: Mr. Meeseeks | Trust Rank level: Supreme Member
Format: Torrent | Site: RARBG
Video ID : 1 Format : AVC Format/Info : Advanced Video Codec Format profile : High@L4.1 Format settings : CABAC / 3 Ref Frames Format settings, CABAC : Yes Format settings, Reference frames : 3 frames Codec ID : V_MPEG4/ISO/AVC Duration : 1 h 22 min Bit rate mode : Variable Bit rate : 35.0 Mb/s Maximum bit rate : 36.0 Mb/s Width : 1 920 pixels Height : 1 080 pixels Display aspect ratio : 16:9 Frame rate mode : Constant Frame rate : 23.976 (24000/1001) FPS Color space : YUV Chroma subsampling : 4:2:0 Bit depth : 8 bits Scan type : Progressive Bits/(Pixel*Frame) : 0.704 Stream size : 19.9 GiB (84%) Title : Harpoon.2019.1080p.BluRay.REMUX.AVC.DTS-HD.MA.5.1-FGT Writing library : x264 core 157 r2935 545de2f Encoding settings : cabac=1 / ref=4 / deblock=1:0:0 / analyse=0x3:0x133 / me=umh / subme=10 / psy=1 / psy_rd=1.00:0.00 / mixed_ref=1 / me_range=24 / chroma_me=1 / trellis=2 / 8x8dct=1 / cqm=0 / deadzone=21,11 / fast_pskip=1 / chroma_qp_offset=-2 / threads=12 / lookahead_threads=1 / sliced_threads=0 / slices=4 / nr=0 / decimate=1 / interlaced=0 / bluray_compat=1 / constrained_intra=0 / bframes=3 / b_pyramid=1 / b_adapt=2 / b_bias=0 / direct=3 / weightb=1 / open_gop=1 / weightp=1 / keyint=24 / keyint_min=1 / scenecut=40 / intra_refresh=0 / rc_lookahead=24 / rc=2pass / mbtree=1 / bitrate=35000 / ratetol=0.1 / qcomp=0.90 / qpmin=1 / qpmax=69 / qpstep=4 / cplxblur=20.0 / qblur=0.5 / vbv_maxrate=36000 / vbv_bufsize=30000 / nal_hrd=vbr / filler=0 / ip_ratio=1.40 / aq=1:1.00 Language : English Default : No Forced : No Color range : Limited Color primaries : BT.709 Transfer characteristics : BT.709 Matrix coefficients : BT.709 Audio #1 ID : 2 Format : DTS XLL Format/Info : Digital Theater Systems Commercial name : DTS-HD Master Audio Codec ID : A_DTS Duration : 1 h 22 min Bit rate mode : Variable Bit rate : 3 710 kb/s Channel(s) : 6 channels Channel layout : C L R Ls Rs LFE Sampling rate : 48.0 kHz Frame rate : 93.750 FPS (512 SPF) Bit depth : 24 bits Compression mode : Lossless Delay relative to video : 5 s 5 ms Stream size : 2.14 GiB (9%) Title : Harpoon.2019.1080p.BluRay.REMUX.AVC.DTS-HD.MA.5.1-FGT Language : English Default : Yes Forced : No Audio #2 ID : 3 Format : PCM Format settings : Little / Signed Codec ID : A_PCM/INT/LIT Duration : 1 h 22 min Bit rate mode : Constant Bit rate : 2 304 kb/s Channel(s) : 2 channels Sampling rate : 48.0 kHz Frame rate : 30.000 FPS (1600 SPF) Bit depth : 24 bits Delay relative to video : 5 s 5 ms Stream size : 1.33 GiB (6%) Title : Harpoon.2019.1080p.BluRay.REMUX.AVC.DTS-HD.MA.5.1-FGT Language : English Default : No Forced : No Audio #3 ID : 4 Format : AC-3 Format/Info : Audio Coding 3 Commercial name : Dolby Digital Codec ID : A_AC3 Duration : 1 h 22 min Bit rate mode : Constant Bit rate : 320 kb/s Channel(s) : 2 channels Channel layout : L R Sampling rate : 48.0 kHz Frame rate : 31.250 FPS (1536 SPF) Bit depth : 16 bits Compression mode : Lossy Stream size : 189 MiB (1%) Title : Harpoon.2019.1080p.BluRay.REMUX.AVC.DTS-HD.MA.5.1-FGT Language : English Service kind : Complete Main Default : No Forced : No Audio #4 ID : 5 Format : AC-3 Format/Info : Audio Coding 3 Commercial name : Dolby Digital Codec ID : A_AC3 Duration : 1 h 22 min Bit rate mode : Constant Bit rate : 320 kb/s Channel(s) : 2 channels Channel layout : L R Sampling rate : 48.0 kHz Frame rate : 31.250 FPS (1536 SPF) Bit depth : 16 bits Compression mode : Lossy Stream size : 189 MiB (1%) Title : Harpoon.2019.1080p.BluRay.REMUX.AVC.DTS-HD.MA.5.1-FGT Language : English Service kind : Complete Main Default : No Forced : No Text ID : 6 Format : PGS Muxing mode : zlib Codec ID : S_HDMV/PGS Codec ID/Info : Picture based subtitle format used on BDs/HD-DVDs Duration : 1 h 22 min Bit rate : 32.2 kb/s Count of elements : 1882 Stream size : 18.9 MiB (0%) Title : English-PGS Language : English Default : Yes Forced : No
October 08, 2019
Harpoon.2019.1080p.WEB-DL.DD5.1.H264-CMRG
Video and audio quality: 5/5 | Source: Official web stream

Submitted by: Ivana 🌿 | Trust Rank level: Legend Member
Format: Torrent | Site: TorrentGalaxy
Duration: 1h 22min Resolution: 1920x1080 Language: English

Videos Add media

Harpoon (2019) Official Trailer
Harpoon (2019) Official Trailer