Hard Kill

Hard Kill

Hot
Ivana 🌿Ivana 🌿   July 18, 2020  
Add to list
Hard Kill

Movie info

Title
Confirmed and upcoming movie titles only! Search before adding to avoid dupes.
Hard Kill
Year
The year the movie is set to be released.
2020
Director
Matt Eskandari
Genre
Pick one or multiple movie genres.
Digital release
Official digital release date on services such as iTunes, Amazon, Netflix. It's the first known release date, without any country restriction. So if it's out on iTunes Russia first, this would be the digital release date.
August 28, 2020
Description
Once titled Open Source, this film got a name change to the super generic "Hard Kill". It's a straight to VOD release. Starring Bruce Willis, Jesse Metcalfe.
Where you watch

Where you watch Email alert

Yes, it is available and reported below. Use the alert button to get notified when higher quality versions are available.

Download and stream reports

Is there a Hard Kill torrent? Yes. Reports are available below.
When will Hard Kill be available on VOD? It's set for a August 28, 2020 release.

September 10, 2020
Hard.Kill.2020.1080p.BluRay.REMUX.AVC.DTS-HD.MA.5.1-FGT
Video and audio quality: 5/5 | Source: BluRay

Submitted by: Mr. Meeseeks | Trust Rank level: Supreme Member
Format: Torrent | Site: RARBG
Video ID : 1 ID in the original source medium : 4113 (0x1011) Format : AVC Format/Info : Advanced Video Codec Format profile : High@L4.1 Format settings : CABAC / 3 Ref Frames Format settings, CABAC : Yes Format settings, Reference frames : 3 frames Codec ID : V_MPEG4/ISO/AVC Duration : 1 h 38 min Bit rate mode : Variable Bit rate : 23.0 Mb/s Maximum bit rate : 35.0 Mb/s Width : 1 920 pixels Height : 1 080 pixels Display aspect ratio : 16:9 Frame rate mode : Constant Frame rate : 23.976 (24000/1001) FPS Standard : NTSC Color space : YUV Chroma subsampling : 4:2:0 Bit depth : 8 bits Scan type : Progressive Bits/(Pixel*Frame) : 0.462 Stream size : 15.8 GiB (87%) Title : Hard.Kill.2020.1080p.BluRay.REMUX.AVC.DTS-HD.MA.5.1-FGT Language : English Default : No Forced : No Color range : Limited Color primaries : BT.709 Transfer characteristics : BT.709 Matrix coefficients : BT.709 Original source medium : Blu-ray Audio #1 ID : 2 ID in the original source medium : 4352 (0x1100) Format : DTS XLL Format/Info : Digital Theater Systems Commercial name : DTS-HD Master Audio Codec ID : A_DTS Duration : 1 h 38 min Bit rate mode : Variable Bit rate : 1 802 kb/s Channel(s) : 6 channels Channel layout : C L R Ls Rs LFE Sampling rate : 48.0 kHz Frame rate : 93.750 FPS (512 SPF) Bit depth : 16 bits Compression mode : Lossless Stream size : 1.24 GiB (7%) Title : Hard.Kill.2020.1080p.BluRay.REMUX.AVC.DTS-HD.MA.5.1-FGT Language : English Default : Yes Forced : No Original source medium : Blu-ray Audio #2 ID : 3 ID in the original source medium : 4353 (0x1101) Format : PCM Format settings : Little / Signed Codec ID : A_PCM/INT/LIT Duration : 1 h 38 min Bit rate mode : Constant Bit rate : 1 536 kb/s Channel(s) : 2 channels Sampling rate : 48.0 kHz Frame rate : 30.000 FPS (1600 SPF) Bit depth : 16 bits Stream size : 1.06 GiB (6%) Title : Hard.Kill.2020.1080p.BluRay.REMUX.AVC.DTS-HD.MA.5.1-FGT Language : English Default : No Forced : No Original source medium : Blu-ray
August 25, 2020
Hard.Kill.2020.1080p.WEB-DL.H264.AC3-EVO
Video and audio quality: 5/5 | Source: Official web stream

Submitted by: Ivana 🌿 | Trust Rank level: Supreme Member
Format: Torrent | Site: TorrentGalaxy
Duration: 1h 38min Resolution: 1920x1080 Language: English

Videos Add media

HARD KILL Official Trailer (2020) Bruce Willis, Action Movie HD
HARD KILL Official Trailer (2020) Bruce Willis, Ac...