Happy Hunting

Happy Hunting

Hot
Ramona FlowersRamona Flowers   September 06, 2017  
Add to list
Happy Hunting

Movie info

Title
Confirmed and upcoming movie titles only! Search before adding to avoid dupes.
Happy Hunting
Year
The year the movie is set to be released.
2017
Director
Joe Dietsch and Louie Gibson
Genre
Pick one or multiple movie genres.
Cinema release
First cinema release date in any country.
September 22, 2017
Description
Martin Dingle Wall stars as Warren, a drifter whose alcoholism becomes the least of his worries when he passes through the town of Bedford Flats. Unbeknownst to Warren, the favorite pasttime of the locals is coralling drifters and hunting them for sport. Warren must find a way to stay inebriated to fight off his crippling withdrawals, while literally fighting off the townspeople.
Where you watch

Where you watch Email alert

Yes, it is available and reported below. Use the alert button to get notified when higher quality versions are available.

Download and stream reports

Is there a Happy Hunting torrent? Yes. Reports are available below.
When will Happy Hunting be available on digital platforms like iTunes, Amazon or Apple+? As of now, there's no release date announced. This includes iTunes, Amazon, Blu-Ray and DVD.

May 01, 2020
Happy.Hunting.2017.1080p.BluRay.x264-GETiT
Video and audio quality: 5/5 | Source: BluRay

Submitted by: Mr. Meeseeks | Trust Rank level: Supreme Member
Format: Torrent | Site: RARBG
Video ID : 1 Format : AVC Format/Info : Advanced Video Codec Format profile : High@L4.1 Format settings : CABAC / 5 Ref Frames Format settings, CABAC : Yes Format settings, Reference frames : 5 frames Codec ID : V_MPEG4/ISO/AVC Duration : 1 h 30 min Bit rate : 10.6 Mb/s Width : 1 920 pixels Height : 792 pixels Display aspect ratio : 2.40:1 Frame rate mode : Constant Frame rate : 24.000 FPS Color space : YUV Chroma subsampling : 4:2:0 Bit depth : 8 bits Scan type : Progressive Bits/(Pixel*Frame) : 0.289 Stream size : 6.54 GiB (86%) Writing library : x264 core 158 r2988 7817004 Encoding settings : cabac=1 / ref=5 / deblock=1:-2:-2 / analyse=0x3:0x113 / me=umh / subme=8 / psy=1 / psy_rd=1.00:0.00 / mixed_ref=1 / me_range=16 / chroma_me=1 / trellis=2 / 8x8dct=1 / cqm=0 / deadzone=21,11 / fast_pskip=0 / chroma_qp_offset=-2 / threads=24 / lookahead_threads=4 / sliced_threads=0 / nr=0 / decimate=1 / interlaced=0 / bluray_compat=0 / constrained_intra=0 / bframes=3 / b_pyramid=2 / b_adapt=2 / b_bias=0 / direct=3 / weightb=1 / open_gop=0 / weightp=2 / keyint=240 / keyint_min=24 / scenecut=40 / intra_refresh=0 / rc_lookahead=50 / rc=2pass / mbtree=1 / bitrate=10556 / ratetol=1.0 / qcomp=0.60 / qpmin=0 / qpmax=69 / qpstep=4 / cplxblur=20.0 / qblur=0.5 / ip_ratio=1.40 / aq=1:1.00 Language : English Default : Yes Forced : No Audio ID : 2 Format : DTS Format/Info : Digital Theater Systems Codec ID : A_DTS Duration : 1 h 30 min Bit rate mode : Constant Bit rate : 1 509 kb/s Channel(s) : 6 channels Channel layout : C L R Ls Rs LFE Sampling rate : 48.0 kHz Frame rate : 93.750 FPS (512 SPF) Bit depth : 24 bits Compression mode : Lossy Stream size : 980 MiB (13%) Language : English Default : Yes Forced : No
September 23, 2017
Happy.Hunting.2017.1080p.WEB-DL.DD5.1.H264-FGT
Video and audio quality: 5/5 | Source: Official web stream

Submitted by: Ramona Flowers | Trust Rank level: Professional
Format: Torrent | Site: ExtraTorrent
1080P

Videos Add media

HAPPY HUNTING Trailer (2017) Thriller, Movie HD
HAPPY HUNTING Trailer (2017) Thriller, Movie HD