Happiest Season

Happiest Season

Mr. MeeseeksMr. Meeseeks   November 26, 2020  
Add to list
Happiest Season

Movie info

Title
Confirmed and upcoming movie titles only! Search before adding to avoid dupes.
Happiest Season
Year
The year the movie is set to be released.
2020
Director
Clea DuVall
Genre
Pick one or multiple movie genres.
Digital release
Official digital release date on services such as iTunes, Amazon, Netflix. It's the first known release date, without any country restriction. So if it's out on iTunes Russia first, this would be the digital release date.
November 25, 2020
Description
Starring Kristen Stewart, Mackenzie Davis, Alison Brie, Aubrey Plaza, Dan Levy, Jake McDorman, Mary Steenburgen, Victor Garber, Sarayu Blue, Ana Gasteyer, and Michelle Buteau.
Where you watch

Where you watch Email alert

Yes, it is available and reported below. Use the alert button to get notified when higher quality versions are available.

Download and stream reports

Is there a Happiest Season torrent? Yes. Reports are available below.
When will Happiest Season be available on VOD? It's set for a November 25, 2020 release.

November 26, 2020
Happiest.Season.2020.720p.WEB.H264-NAISU
Video and audio quality: 5/5 | Source: Official web stream

Submitted by: Mr. Meeseeks | Trust Rank level: Supreme Member
Format: Torrent | Site: RARBG
trying not to ruin Christmas. MediaInfo « Video ID : 1 Format : AVC Format/Info : Advanced Video Codec Format profile : High@L3.1 Format settings : CABAC / 5 Ref Frames Format settings, CABAC : Yes Format settings, Reference frames : 5 frames Codec ID : V_MPEG4/ISO/AVC Duration : 1 h 41 min Bit rate : 1 476 kb/s Width : 1 280 pixels Height : 720 pixels Display aspect ratio : 16:9 Frame rate mode : Constant Frame rate : 23.976 (24000/1001) FPS Color space : YUV Chroma subsampling : 4:2:0 Bit depth : 8 bits Scan type : Progressive Bits/(Pixel*Frame) : 0.067 Stream size : 1.05 GiB (84%) Default : Yes Forced : No Audio ID : 2 Format : E-AC-3 Format/Info : Enhanced AC-3 Commercial name : Dolby Digital Plus Codec ID : A_EAC3 Duration : 1 h 41 min Bit rate mode : Constant Bit rate : 256 kb/s Channel(s) : 6 channels Channel layout : L R C LFE Ls Rs Sampling rate : 48.0 kHz Frame rate : 31.250 FPS (1536 SPF) Compression mode : Lossy Stream size : 187 MiB (14%) Language : English Service kind : Complete Main Default : Yes Forced : No Text #1 ID : 3 Format : UTF-8 Codec ID : S_TEXT/UTF8 Codec ID/Info : UTF-8 Plain Text Title : English Language : English Default : No Forced : No Text #2 ID : 4 Format : UTF-8 Codec ID : S_TEXT/UTF8 Codec ID/Info : UTF-8 Plain Text Title : Spanish Language : Spanish Default : No Forced : No

Videos Add media

Happiest Season - Trailer (Official) • A Hulu Original
Happiest Season - Trailer (Official) • A Hulu Or...