Hallowed Ground

Hallowed Ground

Mr. MeeseeksMr. Meeseeks   April 29, 2019  
Add to list
Hallowed Ground

Movie info

TITLE
Confirmed and upcoming movie titles only! Search before adding to avoid dupes.
Hallowed Ground
YEAR
The year the movie is set to be released.
2019
DIRECTOR
GENRE
Pick one or multiple movie genres.
CINEMA
First cinema release date in any country.
June 07, 2019
DESCRIPTION
Starring Ritchie Montgomery, Lindsay Anne Williams, Sherri Eakin, Miles Doleac, Jeremy Sande, Cotton Yancey, Creek Wilson, Michael Randall, Dan Forest, Wesley O’Mary, Ella Claire Bennett, Joseph VanZandt, Mindy Van Kuren, Michael J. Bradford, and Dan Ellzey.
WHERE YOU WATCH

Where you watch Email alert

The movie is online and reported below, Use the alert button to get notified when higher quality versions are available.

Reports

Is Hallowed Ground available online? Yes. Reports of pirated torrents and streams are available below.
When will Hallowed Ground be available on digital platforms like iTunes or Amazon? As of now, there's no release data announced. This includes iTunes, Amazon, Blu-Ray and DVD.

June 11, 2019
Hallowed.Ground.2019.1080p.AMZN.WEBRip.DDP5.1.x264-NTG
Video and audio quality: 5/5 | Source: Official web stream

Submitted by: Mr. Meeseeks | Trust Rank level: Supreme Member
Format: Torrent | Site: RARBG
Video ID : 1 Format : AVC Format/Info : Advanced Video Codec Format profile : [email protected] Format settings : CABAC / 4 Ref Frames Format settings, CABAC : Yes Format settings, ReFrames : 4 frames Codec ID : V_MPEG4/ISO/AVC Duration : 1 h 56 min Bit rate mode : Constant Bit rate : 9 126 kb/s Nominal bit rate : 10 000 kb/s Width : 1 920 pixels Height : 816 pixels Display aspect ratio : 2.35:1 Frame rate mode : Constant Frame rate : 23.976 (24000/1001) FPS Color space : YUV Chroma subsampling : 4:2:0 Bit depth : 8 bits Scan type : Progressive Bits/(Pixel*Frame) : 0.243 Stream size : 7.45 GiB (93%) Default : Yes Forced : No Color range : Limited Color primaries : BT.709 Transfer characteristics : BT.709 Matrix coefficients : BT.709 Audio ID : 2 Format : E-AC-3 Format/Info : Enhanced AC-3 Commercial name : Dolby Digital Plus Codec ID : A_EAC3 Duration : 1 h 56 min Bit rate mode : Constant Bit rate : 640 kb/s Channel(s) : 6 channels Channel layout : L R C LFE Ls Rs Sampling rate : 48.0 kHz Frame rate : 31.250 FPS (1536 SPF) Compression mode : Lossy Stream size : 535 MiB (7%) Language : English Service kind : Complete Main Default : Yes Forced : No Text #1 ID : 3 Format : UTF-8 Codec ID : S_TEXT/UTF8 Codec ID/Info : UTF-8 Plain Text Duration : 1 h 56 min Bit rate : 43 b/s Count of elements : 1245 Stream size : 37.3 KiB (0%) Language : English Default : No Forced : No Text #2 ID : 4 Format : UTF-8 Codec ID : S_TEXT/UTF8 Codec ID/Info : UTF-8 Plain Text Duration : 1 h 56 min Bit rate : 47 b/s Count of elements : 1412 Stream size : 40.6 KiB (0%) Title : SDH Language : English Default : No Forced : No