Grand Isle

Grand Isle

Hot
Mr. MeeseeksMr. Meeseeks   November 08, 2019  
Add to list
Grand Isle

Movie info

Title
Confirmed and upcoming movie titles only! Search before adding to avoid dupes.
Grand Isle
Year
The year the movie is set to be released.
2019
Genre
Pick one or multiple movie genres.
Digital release
Official digital release date on services such as iTunes, Amazon, Netflix. It's the first known release date, without any country restriction. So if it's out on iTunes Russia first, this would be the digital release date.
December 06, 2019
Description
Starring Nicolas Cage, KaDee Strickland, Luke Benward, Kelsey Grammar, Emily Marie Palmer, Zulay Henao, and Oliver Trevena.
Where you watch

Where you watch Email alert

Yes. The movie is online and reported below, Use the alert button to get notified when higher quality versions are available.

Download and stream reports

Can I download or stream Grand Isle? Yes. Reports of pirated torrents and streams are available below.
When will Grand Isle be available on digital platforms like iTunes or Amazon? It's set for a December 06, 2019 release. This likely includes iTunes and Amazon unless it is an exclusive Netflix, or similar, release. Physical versions on Blu-Ray or DVD will likely follow.

February 14, 2020
Grand.Isle.2019.720p.BluRay.x264-ROVERS
Video and audio quality: 5/5 | Source: BluRay

Submitted by: Mr. Meeseeks | Trust Rank level: Supreme Member
Format: Torrent | Site: RARBG
Video ID : 1 Format : AVC Format/Info : Advanced Video Codec Format profile : High@L4.1 Format settings : CABAC / 5 Ref Frames Format settings, CABAC : Yes Format settings, Reference frames : 5 frames Codec ID : V_MPEG4/ISO/AVC Duration : 1 h 37 min Bit rate : 4 922 kb/s Width : 1 280 pixels Height : 584 pixels Display aspect ratio : 2.2:1 Frame rate mode : Constant Frame rate : 23.976 (24000/1001) FPS Color space : YUV Chroma subsampling : 4:2:0 Bit depth : 8 bits Scan type : Progressive Bits/(Pixel*Frame) : 0.275 Stream size : 3.34 GiB (77%) Writing library : x264 core 159 r2991 1771b55 Encoding settings : cabac=1 / ref=5 / deblock=1:-3:-3 / analyse=0x3:0x113 / me=umh / subme=8 / psy=1 / psy_rd=1.00:0.00 / mixed_ref=1 / me_range=16 / chroma_me=1 / trellis=1 / 8x8dct=1 / cqm=0 / deadzone=21,11 / fast_pskip=1 / chroma_qp_offset=-2 / threads=18 / lookahead_threads=3 / sliced_threads=0 / nr=0 / decimate=1 / interlaced=0 / bluray_compat=0 / constrained_intra=0 / bframes=3 / b_pyramid=2 / b_adapt=1 / b_bias=0 / direct=3 / weightb=1 / open_gop=0 / weightp=2 / keyint=250 / keyint_min=23 / scenecut=40 / intra_refresh=0 / rc_lookahead=50 / rc=2pass / mbtree=1 / bitrate=4922 / ratetol=1.0 / qcomp=0.60 / qpmin=0 / qpmax=69 / qpstep=4 / cplxblur=20.0 / qblur=0.5 / ip_ratio=1.40 / aq=1:1.00 Language : English Default : Yes Forced : No Audio ID : 2 Format : DTS Format/Info : Digital Theater Systems Codec ID : A_DTS Duration : 1 h 37 min Bit rate mode : Constant Bit rate : 1 509 kb/s Channel(s) : 6 channels Channel layout : C L R Ls Rs LFE Sampling rate : 48.0 kHz Frame rate : 93.750 FPS (512 SPF) Bit depth : 24 bits Compression mode : Lossy Stream size : 1.03 GiB (23%) Language : English Default : Yes Forced : No
December 06, 2019
Grand.Isle.2019.1080p.AMZN.WEBRip.DDP5.1.x264-NTG
Video and audio quality: 5/5 | Source: Official web stream

Submitted by: Ivana 🌿 | Trust Rank level: Legend Member
Format: Torrent | Site: RARBG
Duration: 1h 37min Resolution: 1920x872 Language: English

Videos Add media

Grand Isle - Official Trailer
Grand Isle - Official Trailer