Gnomeo & Juliet: Sherlock Gnomes

Gnomeo & Juliet: Sherlock Gnomes

Ramona FlowersRamona Flowers   September 07, 2017  
News (0)
Add to list
Gnomeo & Juliet: Sherlock Gnomes

Movie info

TITLE
Confirmed and upcoming movie titles only! Search before adding to avoid dupes.
YEAR
The year the movie is set to be released.
2018
GENRE
Pick one or multiple movie genres.
CINEMA
First cinema release date in any country.
March 23, 2018
DESCRIPTION
The third motion picture from the newly minted Paramount Animation will be sequel to the lawn ornament themed animated film "Gnomeo & Juliet". It's set to hit theaters March 23rd, 2018, John Stevenson ('Kung Fu Panda') spent nearly a half-decade working on the film, which is based on a screenplay from Andy Riley, and Kevin Cecil which parodies Sherlock Holmes. James McAvoy and Emily Blunt are the only voices from the original film confirmed to return, and Johnny Depp joins to voice the new character 'Sherlock Gnomes'.
WHERE YOU WATCH

Where you watch Email alert

The movie is online and reported below, Use the alert button to get notified when higher quality versions are available.

Reports

June 02, 2018
Sherlock.Gnomes.2018.720p.BluRay.x264-GECKOS
Video and audio quality: 5/5 | Source: BluRay

Submitted by: Mr. Meeseeks | Trust Rank level: Legend Member
Format: Torrent | Site: TorrentingMe
X264 bitrate : 2877Kbps Resolution : 1280x536 Size : 2709MB (2840270433 Bytes) Audio : DTS 1509Kbps 6ch Language : English Subtitles : English
May 31, 2018
Sherlock.Gnomes.2018.DVDRip.XviD.AC3-EVO
Video and audio quality: 5/5 | Source: DVD

Submitted by: Mr. Meeseeks | Trust Rank level: Legend Member
Format: Torrent | Site: 1337x
ViDEO: 1500 Kbps -2 Passes RESOLUTiON: 720x304 RUNTiME: 1h 26m 43s SUBTiTLES: No. AUDiO: 448 Kbps AC3 5.1 LANGUAGE: ENGLiSH ENCODER: DdHD
March 27, 2018
Sherlock Gnomes 2018 HDCAM XviD-VAiN
Video and audio quality: 2/5 | Source: Camera

Submitted by: Mr. Meeseeks | Trust Rank level: Legend Member
Format: Torrent | Site: TorrentingMe
Format/Info : Audio Video Interleave File size : 931 MiB Duration : 1 h 17 min Overall bit rate : 1 678 kb/s Writing library : VirtualDub build 35491/release Video ID : 0 Format : MPEG-4 Visual Format profile : Advanced [email protected] Format settings, BVOP : 2 Format settings, QPel : No Format settings, GMC : No warppoints Format settings, Matrix : Default (H.263) Muxing mode : Packed bitstream Codec ID : XVID Codec ID/Hint : XviD Duration : 1 h 17 min Bit rate : 1 539 kb/s Width : 720 pixels Height : 334 pixels Display aspect ratio : 2.2:1 Frame rate : 29.970 (30000/1001) FPS Color space : YUV Chroma subsampling : 4:2:0 Bit depth : 8 bits Scan type : Progressive Compression mode : Lossy Bits/(Pixel*Frame) : 0.214 Stream size : 854 MiB (92%) Writing library : XviD 64 Audio ID : 1 Format : MPEG Audio Format version : Version 1 Format profile : Layer 3 Mode : Joint stereo Mode extension : MS Stereo Codec ID : 55 Codec ID/Hint : MP3 Duration : 1 h 17 min Bit rate mode : Constant Bit rate : 128 kb/s Channel(s) : 2 channels Sampling rate : 44.1 kHz Compression mode : Lossy Stream size : 70.9 MiB (8%) Alignment : Split accross interleaves Interleave, duration : 33 ms (1.00 video frame) Interleave, preload duratio : 500 ms

Movie News

There are no member news items for this movie.
To write a comment please register or