Gloria Bell

Gloria Bell

Hot
Ivana 🌿Ivana 🌿   December 31, 2018  
Add to list
Gloria Bell

Movie info

TITLE
Confirmed and upcoming movie titles only! Search before adding to avoid dupes.
Gloria Bell
YEAR
The year the movie is set to be released.
2019
GENRE
Pick one or multiple movie genres.
CINEMA
First cinema release date in any country.
March 08, 2019
DESCRIPTION
Starring Julianne Moore, John Turturro, Michael Cera, Caren Pistorius, Brad Garrett, Jeanne Tripplehorn, Rita Wilson, Sean Astin and Holland Taylor.
WHERE YOU WATCH

Where you watch Email alert

The movie is online and reported below, Use the alert button to get notified when higher quality versions are available.

Reports

Is Gloria Bell available online? Yes. Reports of pirated torrents and streams are available below.
When will Gloria Bell be available on digital platforms like iTunes or Amazon? As of now, there's no release data announced. This includes iTunes, Amazon, Blu-Ray and DVD.

May 31, 2019
Gloria.Bell.2018.1080p.BluRay.x264-DRONES
Video and audio quality: 5/5 | Source: BluRay

Submitted by: Ivana 🌿 | Trust Rank level: Legend Member
Format: Torrent | Site: RARBG
Duration: 1h 41min Resolution: 1920x800 Language: English
May 21, 2019
Gloria.Bell.2018.1080p.WEB-DL.DD5.1.H264-FGT
Video and audio quality: 5/5 | Source: Official web stream

Submitted by: Mavoy | Trust Rank level: Hero member
Format: Torrent | Site: 1337x
Video ID : 1 Format : AVC Format/Info : Advanced Video Codec Format profile : [email protected] Format settings : CABAC / 5 Ref Frames Format settings, CABAC : Yes Format settings, ReFrames : 5 frames Codec ID : V_MPEG4/ISO/AVC Duration : 1 h 41 min Bit rate : 4 567 kb/s Width : 1 920 pixels Height : 800 pixels Display aspect ratio : 2.40:1 Frame rate mode : Constant Frame rate : 23.976 (23976/1000) FPS Color space : YUV Chroma subsampling : 4:2:0 Bit depth : 8 bits Scan type : Progressive Bits/(Pixel*Frame) : 0.124 Stream size : 3.24 GiB (92%) Title : Gloria.Bell.2018.1080p.WEB-DL.DD5.1.H264-FGT Language : English Default : Yes Forced : No Color range : Limited Color primaries : BT.709 Transfer characteristics : BT.709 Matrix coefficients : BT.709 Audio ID : 2 Format : AC-3 Format/Info : Audio Coding 3 Commercial name : Dolby Digital Codec ID : A_AC3 Duration : 1 h 41 min Bit rate mode : Constant Bit rate : 384 kb/s Channel(s) : 6 channels Channel layout : L R C LFE Ls Rs Sampling rate : 48.0 kHz Frame rate : 31.250 FPS (1536 SPF) Bit depth : 16 bits Compression mode : Lossy Stream size : 279 MiB (8%) Title : Gloria.Bell.2018.1080p.WEB-DL.DD5.1.H264-FGT Language : English Service kind : Complete Main Default : Yes Forced : No

Videos Add media

GLORIA BELL Official Trailer (2019) Julianne Moore Movie HD
GLORIA BELL Official Trailer (2019) Julianne Moore...