Freaky

Freaky

Hot
Mr. MeeseeksMr. Meeseeks   September 10, 2020  
Add to list
Freaky

Movie info

Title
Confirmed and upcoming movie titles only! Search before adding to avoid dupes.
Freaky
Year
The year the movie is set to be released.
2020
Director
Christopher Landon
Genre
Pick one or multiple movie genres.
Cinema release
First cinema release date in any country.
November 13, 2020
Digital release
Official digital release date on services such as iTunes, Amazon, Netflix. It's the first known release date, without any country restriction. So if it's out on iTunes Russia first, this would be the digital release date.
December 04, 2020
Description
Starring Kathryn Newton, Vince Vaughn, Celeste O'Connor, Misha Osherovich, Uriah Shelto, Alan Ruck, Katie Finneran, and Dana Drori.
Where you watch

Where you watch Email alert

Yes, it is available and reported below. Use the alert button to get notified when higher quality versions are available.

Download and stream reports

Is there a Freaky torrent? Yes. Reports are available below.
When will Freaky be available on VOD? It's set for a December 04, 2020 release.

December 03, 2020
Freaky.2020.1080p.AMZN.WEBRip.DDP5.1.x264-NOGRP
Video and audio quality: 5/5 | Source: Official web stream

Submitted by: Slender | Trust Rank level: Senior Member
Format: Official stream | Site: RARBG
Video ID : 1 Format : AVC Format/Info : Advanced Video Codec Format profile : High@L4 Format settings : CABAC / 4 Ref Frames Format settings, CABAC : Yes Format settings, Reference frames : 4 frames Codec ID : V_MPEG4/ISO/AVC Duration : 1 h 42 min Bit rate mode : Constant Bit rate : 9 221 kb/s Nominal bit rate : 10 000 kb/s Width : 1 920 pixels Height : 800 pixels Display aspect ratio : 2.40:1 Frame rate mode : Constant Frame rate : 23.976 (24000/1001) FPS Color space : YUV Chroma subsampling : 4:2:0 Bit depth : 8 bits Scan type : Progressive Bits/(Pixel*Frame) : 0.250 Stream size : 6.57 GiB (93%) Language : English Default : Yes Forced : No Color range : Limited Color primaries : BT.709 Transfer characteristics : BT.709 Matrix coefficients : BT.709 Audio ID : 2 Format : E-AC-3 Format/Info : Enhanced AC-3 Commercial name : Dolby Digital Plus Codec ID : A_EAC3 Duration : 1 h 42 min Bit rate mode : Constant Bit rate : 640 kb/s Channel(s) : 6 channels Channel layout : L R C LFE Ls Rs Sampling rate : 48.0 kHz Frame rate : 31.250 FPS (1536 SPF) Compression mode : Lossy Stream size : 467 MiB (6%) Language : English Service kind : Complete Main Default : Yes Forced : No

Videos Add media

FREAKY - Official Trailer (HD)
FREAKY - Official Trailer (HD)