Foxtrot

Foxtrot

ElmsElms   December 26, 2017  
News (0)
Add to list
Foxtrot

Movie info

TITLE
Confirmed and upcoming movie titles only! Search before adding to avoid dupes.
YEAR
The year the movie is set to be released.
2017
DIRECTOR
GENRE
Pick one or multiple movie genres.
CINEMA
First cinema release date in any country.
September 21, 2017
DESCRIPTION
A troubled family face the facts when something goes terribly wrong at their son's desolate military post.
WHERE YOU WATCH

Where you watch Email alert

The movie is online and reported below, Use the alert button to get notified when higher quality versions are available.

Reports

May 29, 2018
Foxtrot.2017.720p.HDTV.x264-SweetStar.EURiMaGE.mkv
Video and audio quality: 5/5 | Source: Official web stream

Submitted by: Mr. Meeseeks | Trust Rank level: Legend Member
Format: Torrent | Site: 1337x
General Complete name : Foxtrot.2017.720p.HDTV.x264-SweetStar.EURiMaGE.mkv Format : Matroska Format version : Version 4 / Version 2 File size : 1.56 GiB Duration : 1 h 46 min Overall bit rate mode : Variable Overall bit rate : 2 092 kb/s Movie name : foxtrot Encoded date : UTC 2018-05-18 17:29:34 Writing application : mkvmerge v23.0.0 ('The Bride Said No') 64-bit Writing library : libebml v1.3.6 + libmatroska v1.4.9 Video ID : 1 Format : AVC Format/Info : Advanced Video Codec Format profile : [email protected] Format settings, CABAC : Yes Format settings, RefFrames : 3 frames Codec ID : V_MPEG4/ISO/AVC Duration : 1 h 46 min Bit rate mode : Variable Bit rate : 1 706 kb/s Maximum bit rate : 25.0 Mb/s Width : 1 280 pixels Height : 720 pixels Display aspect ratio : 16:9 Frame rate mode : Constant Frame rate : 25.000 FPS Color space : YUV Chroma subsampling : 4:2:0 Bit depth : 8 bits Scan type : Progressive Bits/(Pixel*Frame) : 0.074 Stream size : 1.27 GiB (82%) Writing library : x264 core 148 r2762 90a61ec Encoding settings : cabac=1 / ref=3 / deblock=1:0:0 / analyse=0x3:0x113 / me=hex / subme=7 / psy=1 / psy_rd=1.00:0.00 / mixed_ref=1 / me_range=16 / chroma_me=1 / trellis=1 / 8x8dct=1 / cqm=0 / deadzone=21,11 / fast_pskip=1 / chroma_qp_offset=-2 / threads=12 / lookahead_threads=2 / sliced_threads=0 / nr=0 / decimate=1 / interlaced=0 / bluray_compat=0 / constrained_intra=0 / bframes=3 / b_pyramid=0 / b_adapt=1 / b_bias=0 / direct=1 / weightb=1 / open_gop=0 / weightp=2 / keyint=250 / keyint_min=25 / scenecut=40 / intra_refresh=0 / rc_lookahead=40 / rc=crf / mbtree=1 / crf=18.0 / qcomp=0.60 / qpmin=0 / qpmax=69 / qpstep=4 / vbv_maxrate=25000 / vbv_bufsize=25000 / crf_max=0.0 / nal_hrd=vbr / filler=0 / ip_ratio=1.40 / aq=1:1.00 Default : Yes Forced : No Audio ID : 2 Format : AC-3 Format/Info : Audio Coding 3 Format settings, Endianness : Big Codec ID : A_AC3 Duration : 1 h 46 min Bit rate mode : Constant Bit rate : 384 kb/s Channel(s) : 6 channels Channel positions : Front: L C R, Side: L R, LFE Sampling rate : 48.0 kHz Frame rate : 31.250 FPS (1536 SPF) Bit depth : 16 bits Compression mode : Lossy Stream size : 293 MiB (18%) Language : Hebrew Service kind : Complete Main Default : Yes Forced : No Text ID : 3 Format : UTF-8 Codec ID : S_TEXT/UTF8 Codec ID/Info : UTF-8 Plain Text Duration : 1 h 36 min Bit rate : 44 b/s Count of elements : 673 Stream size : 31.2 KiB (0%) Language : Hebrew Default : Yes Forced : No

Videos Add media

FOXTROT Trailer | TIFF 2017
FOXTROT Trailer | TIFF 2017

Movie News

There are no member news items for this movie.
To write a comment please register or