Ford v. Ferrari

Ford v. Ferrari

Hot
JuancoJuanco   January 30, 2019  
Add to list
Ford v. Ferrari

Movie info

Title
Confirmed and upcoming movie titles only! Search before adding to avoid dupes.
Ford v. Ferrari
Year
The year the movie is set to be released.
2019
Genre
Pick one or multiple movie genres.
Cinema release
First cinema release date in any country.
November 15, 2019
Description
With a cinema run in mid November, I would be surprised if Ford versus Ferrari is going to be an Oscar contender in 2020. Which likely will see this movie get a DVD Screener download. Unless it hits iTunes, Amazon or a streaming site (Netflix feels unlikely) before that.

It focuses on an eccentric and determined American team of engineers and designers led by the automotive visionary Carroll Shelby (Damon) and his British driver Ken Miles (Bale). Henry Ford II and Lee Iacocca give them the mission of building a new car from scratch in order to overthrow Ferrari's dominance in the 1966 Le Mans World Championship.
Where you watch

Where you watch Email alert

Yes, it is available and reported below. Use the alert button to get notified when higher quality versions are available.

Download and stream reports

Can I download or stream Ford v. Ferrari? Yes. Reports of pirated torrents and streams are available below.
When will Ford v. Ferrari be available on digital platforms like iTunes, Amazon or Apple+? As of now, there's no release date announced. This includes iTunes, Amazon, Blu-Ray and DVD.

February 14, 2020
Ford.v.Ferrari.2019.1080p.BluRay.x264.DTS-HD.MA.7.1-FGT
Video and audio quality: 5/5 | Source: BluRay

Submitted by: Mr. Meeseeks | Trust Rank level: Supreme Member
Format: Torrent | Site: RARBG
Video ID : 1 Format : AVC Format/Info : Advanced Video Codec Format profile : High@L4.1 Format settings : CABAC / 5 Ref Frames Format settings, CABAC : Yes Format settings, Reference frames : 5 frames Codec ID : V_MPEG4/ISO/AVC Duration : 2 h 32 min Bit rate : 8 730 kb/s Width : 1 920 pixels Height : 808 pixels Display aspect ratio : 2.40:1 Frame rate mode : Constant Frame rate : 23.976 (24000/1001) FPS Color space : YUV Chroma subsampling : 4:2:0 Bit depth : 8 bits Scan type : Progressive Bits/(Pixel*Frame) : 0.235 Stream size : 9.30 GiB (63%) Title : Ford.v.Ferrari.2019.1080p.BluRay.x264.DTS-HD.MA.7.1-FGT Writing library : x264 core 159 r2991 1771b55 Encoding settings : cabac=1 / ref=5 / deblock=1:0:0 / analyse=0x3:0x113 / me=umh / subme=8 / psy=1 / psy_rd=1.00:0.00 / mixed_ref=1 / me_range=16 / chroma_me=1 / trellis=1 / 8x8dct=1 / cqm=0 / deadzone=21,11 / fast_pskip=1 / chroma_qp_offset=-2 / threads=16 / lookahead_threads=2 / sliced_threads=0 / nr=0 / decimate=1 / interlaced=0 / bluray_compat=0 / constrained_intra=0 / bframes=3 / b_pyramid=2 / b_adapt=2 / b_bias=0 / direct=3 / weightb=1 / open_gop=0 / weightp=2 / keyint=240 / keyint_min=23 / scenecut=40 / intra_refresh=0 / rc_lookahead=50 / rc=2pass / mbtree=1 / bitrate=8730 / ratetol=1.0 / qcomp=0.60 / qpmin=0 / qpmax=69 / qpstep=4 / cplxblur=20.0 / qblur=0.5 / ip_ratio=1.40 / aq=1:1.00 Default : Yes Forced : No Audio ID : 2 Format : DTS ES XLL Format/Info : Digital Theater Systems Commercial name : DTS-HD Master Audio Codec ID : A_DTS Duration : 2 h 32 min Bit rate mode : Variable Bit rate : 5 158 kb/s Channel(s) : 8 channels Channel layout : C L R Ls Rs LFE Lb Rb Sampling rate : 48.0 kHz Frame rate : 93.750 FPS (512 SPF) Bit depth : 24 bits Compression mode : Lossless Stream size : 5.50 GiB (37%) Title : Ford.v.Ferrari.2019.1080p.BluRay.x264.DTS-HD.MA.7.1-FGT Language : English Default : Yes Forced : No Text #1 ID : 3 Format : UTF-8 Codec ID : S_TEXT/UTF8 Codec ID/Info : UTF-8 Plain Text Duration : 1 h 24 min Bit rate : 0 b/s Count of elements : 9 Stream size : 304 Bytes (0%) Title : English-FORCED-SRT Language : English Default : Yes Forced : Yes Text #2 ID : 4 Format : UTF-8 Codec ID : S_TEXT/UTF8 Codec ID/Info : UTF-8 Plain Text Duration : 2 h 32 min Bit rate : 66 b/s Count of elements : 2489 Stream size : 73.8 KiB (0%) Title : English-SRT Language : English Default : No Forced : No Text #3 ID : 5 Format : PGS Muxing mode : zlib Codec ID : S_HDMV/PGS Codec ID/Info : Picture based subtitle format used on BDs/HD-DVDs Duration : 2 h 32 min Bit rate : 47.0 kb/s Count of elements : 4996 Stream size : 51.3 MiB (0%) Title : English-PGS Language : English Default : No Forced : No Text #4 ID : 6 Format : PGS Muxing mode : zlib Codec ID : S_HDMV/PGS Codec ID/Info : Picture based subtitle format used on BDs/HD-DVDs Duration : 2 h 31 min Bit rate : 32.9 kb/s Count of elements : 3910 Stream size : 35.6 MiB (0%) Title : Spanish-PGS Language : Spanish Default : No Forced : No Text #5 ID : 7 Format : PGS Muxing mode : zlib Codec ID : S_HDMV/PGS Codec ID/Info : Picture based subtitle format used on BDs/HD-DVDs Duration : 2 h 31 min Bit rate : 33.8 kb/s Count of elements : 4130 Stream size : 36.7 MiB (0%) Title : French-PGS Language : French Default : No Forced : No Text #6 ID : 8 Format : PGS Muxing mode : zlib Codec ID : S_HDMV/PGS Codec ID/Info : Picture based subtitle format used on BDs/HD-DVDs Duration : 1 h 24 min Bit rate : 150 b/s Count of elements : 18 Stream size : 92.9 KiB (0%) Title : English-FORCED-PGS Language : English Default : No Forced : No Text #7 ID : 9 Format : PGS Muxing mode : zlib Codec ID : S_HDMV/PGS Codec ID/Info : Picture based subtitle format used on BDs/HD-DVDs Duration : 1 h 24 min Bit rate : 150 b/s Count of elements : 18 Stream size : 92.9 KiB (0%) Title : English-FORCED-PGS Language : English Default : No Forced : No
January 27, 2020
Ford.v.Ferrari.2019.1080p.WEB-DL.H264.AC3-EVO
Video and audio quality: 5/5 | Source: Official web stream

Submitted by: Mavoy | Trust Rank level: Hero member
Format: Torrent | Site: 1337x
Now from the official source [Video Bitrate]:.............: 4928kb/s [Duration]:.............: 2 h 32 min [Video Codec]:.............: AVC [Resolution]:.............: 1920x804 px [Aspect Ratio]:.............: 2.40:1 [Audio Codec]:.............: AC-3 [Audio Bitrate]:.............: 384kb/s [Audio Channels]:.............: 5.1ch [Audio Language]:.............: English
December 29, 2019
Ford.V.Ferrari.2019.1080P.DVDScr.X264.AC3.SHQ.Hive-CM8
Video and audio quality: 4/5 | Source: Screener

Submitted by: Ivana 🌿 | Trust Rank level: Legend Member
Format: Torrent | Site: TorrentGalaxy
Duration: 2hs 32min Resolution: 1920x800 Language: English
November 18, 2019
Ford v Ferrari 2019 720p NEW HDCAM V2-GETB8
Video and audio quality: 1/5 | Source: Camera

Submitted by: Costa | Trust Rank level: Hero member
Format: Torrent | Site: torrentgalaxy
Please be advised this upload has ads cut or watermarked into the video.
November 15, 2019
Ford v Ferrari 2019 720p HDCAM-GETB8
Video and audio quality: 1/5 | Source: Camera

Submitted by: Costa | Trust Rank level: Hero member
Format: Torrent | Site: torrentgalaxy
Please be advised this upload has ads cut or watermarked into the video.

Videos Add media

FORD V FERRARI Official Trailer (2019) Christian Bale, Matt Damon Movie HD
FORD V FERRARI Official Trailer (2019) Christian B...