Folklore: The Long Pond Studio Sessions

December 01, 2020

Movie info

Title
Confirmed and upcoming movie titles only! Search before adding to avoid dupes.
Folklore: The Long Pond Studio Sessions
Year
The year the movie is set to be released.
2020
Director
Genre
Pick one or multiple movie genres.
Digital release
Official digital release date on services such as iTunes, Amazon, Netflix. It's the first known release date, without any country restriction. So if it's out on iTunes Russia first, this would be the digital release date.
November 25, 2020
Description
Courtesy of Disney+, a new documentary film from Taylor Swift about the making of her eighth studio album, "Folklore".
Where you watch

Download and stream reports

Is Folklore: The Long Pond Studio Sessions available online? Yes. Reports of pirated torrents and streams are available below.
When will Folklore: The Long Pond Studio Sessions be available on digital platforms like iTunes or Amazon? It's set for a November 25, 2020 release. This likely includes iTunes and Amazon unless it is an exclusive Netflix, or similar, release. Physical versions on Blu-Ray or DVD will likely follow.

December 01, 2020
Folklore.The.Long.Pond.Studio.Sessions.2020.1080p.DSNP.WEBRip.DDP5.1.Atmos.x264-NOGRP
Quality: 5/5 | Source: Official web stream
Submitted by: Mr. Meeseeks | Trust Rank level: Supreme Member
Format: Torrent | Site: RARBG
Video ID : 1 Format : AVC Format/Info : Advanced Video Codec Format profile : High@L4 Format settings : CABAC / 4 Ref Frames Format settings, CABAC : Yes Format settings, Reference frames : 4 frames Codec ID : V_MPEG4/ISO/AVC Duration : 1 h 46 min Bit rate mode : Variable Bit rate : 6 305 kb/s Maximum bit rate : 12.7 Mb/s Width : 1 920 pixels Height : 1 080 pixels Display aspect ratio : 16:9 Frame rate mode : Constant Frame rate : 23.976 (24000/1001) FPS Color space : YUV Chroma subsampling : 4:2:0 Bit depth : 8 bits Scan type : Progressive Bits/(Pixel*Frame) : 0.127 Stream size : 4.69 GiB (89%) Default : Yes Forced : No Color range : Limited Color primaries : BT.709 Transfer characteristics : BT.709 Matrix coefficients : BT.709 Audio ID : 2 Format : E-AC-3 JOC Format/Info : Enhanced AC-3 with Joint Object Coding Commercial name : Dolby Digital Plus with Dolby Atmos Codec ID : A_EAC3 Duration : 1 h 46 min Bit rate mode : Constant Bit rate : 768 kb/s Channel(s) : 6 channels Channel layout : L R C LFE Ls Rs Sampling rate : 48.0 kHz Frame rate : 31.250 FPS (1536 SPF) Compression mode : Lossy Stream size : 585 MiB (11%) Language : English Service kind : Complete Main Default : Yes Forced : No Complexity index : 16 Number of dynamic objects : 15 Bed channel count : 1 channel Bed channel configuration : LFE Text #1 ID : 3 Format : UTF-8 Codec ID : S_TEXT/UTF8 Codec ID/Info : UTF-8 Plain Text Duration : 1 h 45 min Bit rate : 44 b/s Count of elements : 814 Stream size : 34.7 KiB (0%) Language : Danish Default : No Forced : No

Is Folklore: The Long Pond Studio Sessions available online? Yes. Reports of pirated torrents and streams are available below.
When will Folklore: The Long Pond Studio Sessions be available on digital platforms like iTunes or Amazon? It's set for a November 25, 2020 release.