Flower

Flower

Hot
Mr. MeeseeksMr. Meeseeks   December 17, 2017  
News (0)
Add to list
Flower

Movie info

TITLE
Confirmed and upcoming movie titles only! Search before adding to avoid dupes.
YEAR
The year the movie is set to be released.
2018
DIRECTOR
GENRE
Pick one or multiple movie genres.
CINEMA
First cinema release date in any country.
March 16, 2018
DESCRIPTION
“Flower” is the second feature film from acclaimed television director Max Winkler, set to be released in March of 2018. The story follows Erica, a sexually frustrated seventeen year old girl (Zoey Deutch) whose life is further complicated after her mother (Kathryn Hahn) invited her boyfriend to live with them (Adam Scott). Erica distacts herself by orchestrating various shemes desigined to extort perverted old men out of their money.
WHERE YOU WATCH

Where you watch Email alert

The movie is online and reported below, Use the alert button to get notified when higher quality versions are available.

Reports

June 22, 2018
Flower.2017.LiMiTED.DVDRip.x264-LPD
Video and audio quality: 5/5 | Source: DVD

Submitted by: Mr. Meeseeks | Trust Rank level: Legend Member
Format: Torrent | Site: RARBG
Video ID : 2 Format : AVC Format/Info : Advanced Video Codec Format profile : [email protected] Format settings : CABAC / 5 Ref Frames Format settings, CABAC : Yes Format settings, RefFrames : 5 frames Codec ID : V_MPEG4/ISO/AVC Duration : 1 h 33 min Bit rate : 776 kb/s Width : 720 pixels Height : 394 pixels Display aspect ratio : 1.85:1 Frame rate mode : Constant Frame rate : 23.976 (24000/1001) FPS Color space : YUV Chroma subsampling : 4:2:0 Bit depth : 8 bits Scan type : Progressive Bits/(Pixel*Frame) : 0.114 Stream size : 520 MiB (83%) Writing library : x264 core 155 r2901 7d0ff22 Encoding settings : cabac=1 / ref=5 / deblock=1:0:0 / analyse=0x3:0x113 / me=hex / subme=8 / psy=1 / psy_rd=1.00:0.00 / mixed_ref=1 / me_range=16 / chroma_me=1 / trellis=2 / 8x8dct=1 / cqm=0 / deadzone=21,11 / fast_pskip=1 / chroma_qp_offset=-2 / threads=12 / lookahead_threads=2 / sliced_threads=0 / nr=0 / decimate=1 / interlaced=0 / bluray_compat=0 / constrained_intra=0 / bframes=3 / b_pyramid=2 / b_adapt=1 / b_bias=0 / direct=3 / weightb=1 / open_gop=0 / weightp=2 / keyint=250 / keyint_min=23 / scenecut=40 / intra_refresh=0 / rc_lookahead=50 / rc=crf / mbtree=1 / crf=19.0 / qcomp=0.60 / qpmin=0 / qpmax=69 / qpstep=4 / ip_ratio=1.40 / aq=1:1.00 Language : English Default : Yes Forced : No Audio ID : 1 Format : AAC Format/Info : Advanced Audio Codec Format profile : LC Codec ID : A_AAC-2 Duration : 1 h 33 min Bit rate : 160 kb/s Channel(s) : 2 channels Channel positions : Front: L R Sampling rate : 48.0 kHz Frame rate : 46.875 FPS (1024 SPF) Compression mode : Lossy Delay relative to video : 445 ms Stream size : 107 MiB (17%) Default : Yes Forced : No Menu 00:00:00.054 : en:00:00:00.054
June 05, 2018
Flower 2018 HDRip XviD AC3-EVO
Video and audio quality: 5/5 | Source: Official web stream

Submitted by: Mr. Meeseeks | Trust Rank level: Legend Member
Format: Torrent | Site: TorrentingMe
ViDEO: 1700 Kbps +deblock RESOLUTiON: 720x384 RUNTiME: 1h 33m 43s SUBTiTLES: No. AUDiO: 384 Kbps AC3 5.1 LANGUAGE: ENGLiSH

Videos Add media

Flower - Official Trailer 2 (2018) Zoey Deutch, Kathryn Hahn Comedy Movie HD
Flower - Official Trailer 2 (2018) Zoey Deutch, Ka...
Flower - Official Trailer (2018) Zoey Deutch, Kathryn Hahn Comedy Movie HD
Flower - Official Trailer (2018) Zoey Deutch, Kath...

Movie News

There are no member news items for this movie.
To write a comment please register or