Long Shot

Long Shot

Hot
Mr. MeeseeksMr. Meeseeks   January 02, 2018  
Add to list
Long Shot

Movie info

TITLE
Confirmed and upcoming movie titles only! Search before adding to avoid dupes.
Long Shot
YEAR
The year the movie is set to be released.
2019
GENRE
Pick one or multiple movie genres.
CINEMA
First cinema release date in any country.
February 08, 2019
DESCRIPTION
Acclaimed film director Jonathan Levine is reuniting with Seth Rogen in “Flarsky”, which Lionsgate will release early 2019. Rogen stars as a struggling journalist who decides to pursue his childhood crush years after graduation. Charlize Theron is his unattainable dream girl, who nows runs the United States State Department. O’Shea Jackson Jr. and Andy Serkis have signed on to play supporting roles.
WHERE YOU WATCH

Where you watch Email alert

The movie is online and reported below, Use the alert button to get notified when higher quality versions are available.

Reports

Is Long Shot available online? Yes. Reports of pirated torrents and streams are available below.
When will Long Shot be available on digital platforms like iTunes or Amazon? As of now, there's no release data announced. This includes iTunes, Amazon, Blu-Ray and DVD.

July 22, 2019
Long.Shot.2019.1080p.BluRay.x264.DTS-HD.MA.7.1-FGT
Video and audio quality: 5/5 | Source: BluRay

Submitted by: Mr. Meeseeks | Trust Rank level: Supreme Member
Format: Torrent | Site: RARBG
Video ID : 1 Format : AVC Format/Info : Advanced Video Codec Format profile : [email protected] Format settings : CABAC / 5 Ref Frames Format settings, CABAC : Yes Format settings, Reference frames : 5 frames Codec ID : V_MPEG4/ISO/AVC Duration : 2 h 4 min Bit rate : 9 379 kb/s Width : 1 920 pixels Height : 808 pixels Display aspect ratio : 2.40:1 Frame rate mode : Constant Frame rate : 23.976 (24000/1001) FPS Color space : YUV Chroma subsampling : 4:2:0 Bit depth : 8 bits Scan type : Progressive Bits/(Pixel*Frame) : 0.252 Stream size : 8.18 GiB (70%) Title : Long.Shot.2019.1080p.BluRay.x264.DTS-HD.MA.7.1-FGT Writing library : x264 core 158 r2984 3759fcb Encoding settings : cabac=1 / ref=5 / deblock=1:-3:-3 / analyse=0x3:0x113 / me=umh / subme=8 / psy=1 / psy_rd=1.00:0.00 / mixed_ref=1 / me_range=16 / chroma_me=1 / trellis=1 / 8x8dct=1 / cqm=0 / deadzone=21,11 / fast_pskip=1 / chroma_qp_offset=-2 / threads=25 / lookahead_threads=4 / sliced_threads=0 / nr=0 / decimate=1 / interlaced=0 / bluray_compat=0 / constrained_intra=0 / bframes=3 / b_pyramid=2 / b_adapt=1 / b_bias=0 / direct=3 / weightb=1 / open_gop=0 / weightp=2 / keyint=250 / keyint_min=23 / scenecut=40 / intra_refresh=0 / rc_lookahead=50 / rc=2pass / mbtree=1 / bitrate=9379 / ratetol=1.0 / qcomp=0.60 / qpmin=0 / qpmax=69 / qpstep=4 / cplxblur=20.0 / qblur=0.5 / ip_ratio=1.40 / aq=1:1.00 Language : English Default : Yes Forced : No Audio ID : 2 Format : DTS XLL Format/Info : Digital Theater Systems Commercial name : DTS-HD Master Audio Codec ID : A_DTS Duration : 2 h 4 min Bit rate mode : Variable Bit rate : 3 970 kb/s Channel(s) : 8 channels Channel layout : C L R LFE Lb Rb Lss Rss Sampling rate : 48.0 kHz Frame rate : 93.750 FPS (512 SPF) Bit depth : 24 bits Compression mode : Lossless Stream size : 3.46 GiB (30%) Title : Long.Shot.2019.1080p.BluRay.x264.DTS-HD.MA.7.1-FGT Language : English Default : Yes Forced : No Text #1 ID : 3 Format : UTF-8 Codec ID : S_TEXT/UTF8 Codec ID/Info : UTF-8 Plain Text Duration : 1 h 55 min Bit rate : 95 b/s Count of elements : 2295 Stream size : 80.5 KiB (0%) Title : English-SRT Language : English Default : Yes Forced : No Text #2 ID : 4 Format : PGS Muxing mode : zlib Codec ID : S_HDMV/PGS Codec ID/Info : Picture based subtitle format used on BDs/HD-DVDs Duration : 1 h 55 min Bit rate : 70.4 kb/s Count of elements : 4891 Stream size : 58.1 MiB (0%) Title : English-PGS Language : English Default : No Forced : No Text #3 ID : 5 Format : PGS Muxing mode : zlib Codec ID : S_HDMV/PGS Codec ID/Info : Picture based subtitle format used on BDs/HD-DVDs Duration : 1 h 55 min Bit rate : 54.9 kb/s Count of elements : 3798 Stream size : 45.3 MiB (0%) Title : Spanish-PGS Language : Spanish Default : No Forced : No
July 16, 2019
Long.Shot.2019.720p.WEBRip.800MB.x264-GalaxyRG
Video and audio quality: 5/5 | Source: Official web stream

Submitted by: Costa | Trust Rank level: Hero member
Format: Torrent | Site: torrentgalaxy
MEDIAINFO Container = Matroska (mkv) Duration = 02:04:55.551 Filesize = 798 MiB Overall bitrate = 893 kb/s Video Codec info = AVC [email protected] | V_MPEG4/ISO/AVC Resolution = 1280x528 Display AR = 2.400 | 2.40:1 Bitrate = Framerate = VFR Color space = YUV Chroma subsampling = 4:2:0 Encoder = x264 - core 148 r2748 97eaef2 Audio Codec info = AAC LC | A_AAC Channels = 2 Bitrate = Samplerate = 48.0 kHz Language = English
May 05, 2019
Long Shot 2019 HDCAM x264 AC3-ETRG
Video and audio quality: 1/5 | Source: Camera

Submitted by: Mojib | Trust Rank level: Legend Member
Format: Torrent | Site: Torrentleech
One of many 1xbet casino branded torrents.