First Cow

First Cow

Hot
MojibMojib   October 05, 2019  
Add to list
First Cow

Movie info

Title
Confirmed and upcoming movie titles only! Search before adding to avoid dupes.
First Cow
Year
The year the movie is set to be released.
2020
Genre
Pick one or multiple movie genres.
Cinema release
First cinema release date in any country.
March 06, 2020
Description
Directed by Kelly Reichardt, First Cow is an upcoming drama film that tells the story of King-Lu and Cookie Figowitz’s growing friendship in the beautiful Northwest landscape and their clever scheme that involves the first cow in the area.

After Cookie finds hungry and naked King-Lu in the woods, they start a friendship that results in their ultimate downfall. After playing house and steal from the rich and trying to form life in the wasteland for a while, they start a bakery before attempting to test their luck in San Francisco in 1820.

First Cow is a unique cinematic event and Reichardt takes a simple story about boys fighting about fur and milk and transforms it into a touching, beautiful tale. The movie touches on everything that anyone would expect from one of Reichardt’s films.

Starring John Magaro, Alia Shawkat, Scott Shepherd, Toby Jones, and Ewen Bremner.
Where you watch

Where you watch Email alert

Yes, it is available and reported below. Use the alert button to get notified when higher quality versions are available.

Download and stream reports

Can I download or stream First Cow? Yes. Reports of pirated torrents and streams are available below.
When will First Cow be available on digital platforms like iTunes, Amazon or Apple+? As of now, there's no release date announced. This includes iTunes, Amazon, Blu-Ray and DVD.

July 10, 2020
First.Cow.2019.1080p.WEB-DL.DD5.1.H264-FGT
Video and audio quality: 5/5 | Source: Official web stream

Submitted by: Denzel | Trust Rank level: Jr. Member
Format: Torrent | Site: rarbg
Video ID : 1 Format : AVC Format/Info : Advanced Video Codec Format profile : High@L4 Format settings : CABAC / 5 Ref Frames Format settings, CABAC : Yes Format settings, Reference frames : 5 frames Codec ID : V_MPEG4/ISO/AVC Duration : 2 h 1 min Bit rate : 4 661 kb/s Width : 1 432 pixels Height : 1 076 pixels Display aspect ratio : 4:3 Frame rate mode : Constant Frame rate : 23.976 FPS Color space : YUV Chroma subsampling : 4:2:0 Bit depth : 8 bits Scan type : Progressive Bits/(Pixel*Frame) : 0.126 Stream size : 3.96 GiB (92%) Title : First.Cow.2019.1080p.WEB-DL.DD5.1.H264-FGT Language : English Default : Yes Forced : No Color range : Limited Color primaries : BT.709 Transfer characteristics : BT.709 Matrix coefficients : BT.709 Audio ID : 2 Format : AC-3 Format/Info : Audio Coding 3 Commercial name : Dolby Digital Codec ID : A_AC3 Duration : 2 h 1 min Bit rate mode : Constant Bit rate : 384 kb/s Channel(s) : 6 channels Channel layout : L R C LFE Ls Rs Sampling rate : 48.0 kHz Frame rate : 31.250 FPS (1536 SPF) Bit depth : 16 bits Compression mode : Lossy Stream size : 334 MiB (8%) Title : First.Cow.2019.1080p.WEB-DL.DD5.1.H264-FGT Language : English Service kind : Complete Main Default : Yes Forced : No Text ID : 3 Format : UTF-8 Codec ID : S_TEXT/UTF8 Codec ID/Info : UTF-8 Plain Text Duration : 1 h 52 min Bit rate : 23 b/s Count of elements : 688 Stream size : 19.5 KiB (0%) Language : English Default : Yes Forced : No Menu 00:00:00.000 : en:1 00:19:25.000 : en:2 00:36:41.000 : en:3 00:48:52.000 : en:4 01:03:01.000 : en:5 01:13:47.000 : en:6 01:25:59.000 : en:7 01:40:55.000 : en:8 01:57:32.000 : en:9

Videos Add media

First Cow | Official Trailer HD | A24
First Cow | Official Trailer HD | A24