Fear Street Part 1: 1994

Fear Street Part 1: 1994

Mr. MeeseeksMr. Meeseeks   May 24, 2021  
Add to list
Fear Street Part 1: 1994

Movie info

Title
Confirmed and upcoming movie titles only! Search before adding to avoid dupes.
Fear Street Part 1: 1994
Year
The year the movie is set to be released.
2021
Director
Leigh Janiak
Genre
Pick one or multiple movie genres.
Digital release
Official digital release date on services such as iTunes, Amazon, Netflix. It's the first known release date, without any country restriction. So if it's out on iTunes Russia first, this would be the digital release date.
July 02, 2021
Description
Starring Kiana Madeira, Olivia Welch, Benjamin Flores Jr., Julia Rehwald, and Fred Hechinger.
Where you watch

Where you watch Email alert

Yes, it is available and reported below. Use the alert button to get notified when higher quality versions are available.

Download and stream reports

Is there a Fear Street Part 1: 1994 torrent? Yes. Reports are available below.
When will Fear Street Part 1: 1994 be available on VOD? It's set for a July 02, 2021 release.

July 02, 2021
Fear.Street.Part.1.1994.2021.1080p.NF.WEB-DL.x265.10bit.HDR.DDP5.1.Atmos-CM
Video and audio quality: 5/5 | Source: Official web stream

Submitted by: Mr. Meeseeks | Trust Rank level: Supreme Member
Format: Torrent | Site: RARBG
Video ID : 1 Format : HEVC Format/Info : High Efficiency Video Coding Format profile : Main 10@L4@Main HDR format : SMPTE ST 2086, HDR10 compatible Codec ID : V_MPEGH/ISO/HEVC Duration : 1 h 45 min Bit rate : 5 196 kb/s Width : 1 920 pixels Height : 1 080 pixels Display aspect ratio : 16:9 Frame rate mode : Constant Frame rate : 24.000 FPS Color space : YUV Chroma subsampling : 4:2:0 (Type 2) Bit depth : 10 bits Bits/(Pixel*Frame) : 0.104 Stream size : 3.83 GiB (87%) Default : Yes Forced : No Color range : Limited Color primaries : BT.2020 Transfer characteristics : PQ Matrix coefficients : BT.2020 non-constant Mastering display color primaries : Display P3 Mastering display luminance : min: 0.0001 cd/m2, max: 1000 cd/m2 Maximum Content Light Level : 759 cd/m2 Maximum Frame-Average Light Level : 97 cd/m2 Audio ID : 2 Format : E-AC-3 JOC Format/Info : Enhanced AC-3 with Joint Object Coding Commercial name : Dolby Digital Plus with Dolby Atmos Codec ID : A_EAC3 Duration : 1 h 47 min Bit rate mode : Constant Bit rate : 768 kb/s Channel(s) : 6 channels Channel layout : L R C LFE Ls Rs Sampling rate : 48.0 kHz Frame rate : 31.250 FPS (1536 SPF) Compression mode : Lossy Stream size : 589 MiB (13%) Title : English Language : English Service kind : Complete Main Default : No Forced : No Complexity index : 16 Number of dynamic objects : 15 Bed channel count : 1 channel Bed channel configuration : LFE

Videos Add media

FEAR STREET PART 1: 1994 | Official Trailer | Netflix
FEAR STREET PART 1: 1994 | Official Trailer | Netf...
FEAR STREET | A Film Trilogy Event | Official Teaser | Netflix
FEAR STREET | A Film Trilogy Event | Official Teas...