Every Day

Every Day

Mr. MeeseeksMr. Meeseeks   December 24, 2017  
News (0)
Add to list
Every Day

Movie info

TITLE
Confirmed and upcoming movie titles only! Search before adding to avoid dupes.
YEAR
The year the movie is set to be released.
2018
GENRE
Pick one or multiple movie genres.
CINEMA
First cinema release date in any country.
February 21, 2018
DESCRIPTION
Angourie Rice stars in “Every Day” as Rhiannon, a teenage girl who falls in love with a supernatural spirit, which inhabits the body of a different person every day. This will be the first lead role Rice has been casted for in her career, supporting roles are portrayed by the likes of Debby Ryan, Justice Smith, Maria Bello, and more. Directed by Michael Suscy, his third feature, the story is adapted from the novel of the same name by acclaimed author David Levithan.
WHERE YOU WATCH

Where you watch Email alert

The movie is online and reported below, Use the alert button to get notified when higher quality versions are available.

Reports

June 01, 2018
Every.Day.2018.1080p.BluRay.x264.DTS-CHD
Video and audio quality: 5/5 | Source: BluRay

Submitted by: Mr. Meeseeks | Trust Rank level: Legend Member
Format: Torrent | Site: RARBG
Video ID : 1 Format : AVC Format/Info : Advanced Video Codec Format profile : [email protected] Format settings : CABAC / 4 Ref Frames Format settings, CABAC : Yes Format settings, ReFrames : 4 frames Codec ID : V_MPEG4/ISO/AVC Duration : 1 h 37 min Bit rate : 11.2 Mb/s Width : 1 920 pixels Height : 804 pixels Display aspect ratio : 2.40:1 Frame rate mode : Constant Frame rate : 23.976 (24000/1001) FPS Color space : YUV Chroma subsampling : 4:2:0 Bit depth : 8 bits Scan type : Progressive Bits/(Pixel*Frame) : 0.301 Stream size : 7.59 GiB (88%) Writing library : x264 core 155 r2867+74 66b5600 t_mod_Custom_2 [[email protected] X86_64] Language : English Default : Yes Forced : No Color range : Limited Matrix coefficients : BT.709 Audio ID : 2 Format : DTS Format/Info : Digital Theater Systems Codec ID : A_DTS Duration : 1 h 37 min Bit rate mode : Constant Bit rate : 1 509 kb/s Channel(s) : 6 channels Channel positions : Front: L C R, Side: L R, LFE Sampling rate : 48.0 kHz Frame rate : 93.750 FPS (512 SPF) Bit depth : 24 bits Compression mode : Lossy Stream size : 1.03 GiB (12%) Language : English Default : Yes Forced : No Menu 00:00:00.000 : en:00:00:00.000 00:11:35.445 : en:00:11:35.445 00:20:57.756 : en:00:20:57.756 00:29:04.826 : en:00:29:04.826 00:40:40.438 : en:00:40:40.438 00:50:18.807 : en:00:50:18.807 01:00:08.939 : en:01:00:08.939 01:10:28.391 : en:01:10:28.391 01:20:18.689 : en:01:20:18.689 01:31:52.132 : en:01:31:52.132
May 22, 2018
Every.Day.2018.HDRip.XviD.AC3-EVO
Video and audio quality: 5/5 | Source: Official web stream

Submitted by: Mr. Meeseeks | Trust Rank level: Legend Member
Format: Torrent | Site: 1337x
SOURCE: iTunes :) ViDEO: 1651 Kbps RESOLUTiON: 720x304 RUNTiME: 1h 37m 43s SUBTiTLES: No. AUDiO: 384 Kbps AC3 5.1 LANGUAGE: ENGLiSH ENCODER: DdHD

Videos Add media

Every Day Trailer #1 (2018) | Movieclips Indie
Every Day Trailer #1 (2018) | Movieclips Indie

Movie News

There are no member news items for this movie.
To write a comment please register or