Ava

Hot
Ivana 🌿Ivana 🌿   August 21, 2019  
Add to list
Ava

Movie info

Title
Confirmed and upcoming movie titles only! Search before adding to avoid dupes.
Ava
Year
The year the movie is set to be released.
2020
Director
Genre
Pick one or multiple movie genres.
Cinema release
First cinema release date in any country.
July 02, 2020
Digital release
Official digital release date on services such as iTunes, Amazon, Netflix. It's the first known release date, without any country restriction. So if it's out on iTunes Russia first, this would be the digital release date.
August 25, 2020
Description
Starring Jessica Chastain, Colin Farrell, Common, Diana Silvers, John Malkovich, Geena Davis, Christopher Domig, Joan Chen, Diana Silvers, Jess Weixler, Ioan Gruffudd, and Joe Sobalo, Jr.
Where you watch

Where you watch Email alert

Yes, it is available and reported below. Use the alert button to get notified when higher quality versions are available.

Download and stream reports

Is there a Ava torrent? Yes. Reports are available below.
When will Ava be available on VOD? It's set for a August 25, 2020 release.

September 14, 2020
Ava.2020.1080p.BluRay.REMUX.AVC.DTS-HD.MA.5.1-FGT
Video and audio quality: 5/5 | Source: BluRay

Submitted by: Mr. Meeseeks | Trust Rank level: Supreme Member
Format: Torrent | Site: RARBG
Video ID : 1 ID in the original source medium : 4113 (0x1011) Format : AVC Format/Info : Advanced Video Codec Format profile : High@L4.1 Format settings : CABAC / 4 Ref Frames Format settings, CABAC : Yes Format settings, Reference frames : 4 frames Format settings, GOP : M=3, N=23 Codec ID : V_MPEG4/ISO/AVC Duration : 1 h 36 min Bit rate mode : Variable Bit rate : 23.3 Mb/s Maximum bit rate : 28.0 Mb/s Width : 1 920 pixels Height : 1 080 pixels Display aspect ratio : 16:9 Frame rate mode : Constant Frame rate : 23.976 (24000/1001) FPS Color space : YUV Chroma subsampling : 4:2:0 Bit depth : 8 bits Scan type : Progressive Bits/(Pixel*Frame) : 0.468 Stream size : 15.7 GiB (79%) Title : Ava.2020.1080p.BluRay.REMUX.AVC.DTS-HD.MA.5.1-FGT Language : English Default : No Forced : No Color range : Limited Color primaries : BT.709 Transfer characteristics : BT.709 Matrix coefficients : BT.709 Original source medium : Blu-ray Audio #1 ID : 2 ID in the original source medium : 4352 (0x1100) Format : DTS XLL Format/Info : Digital Theater Systems Commercial name : DTS-HD Master Audio Codec ID : A_DTS Duration : 1 h 36 min Bit rate mode : Variable Bit rate : 3 753 kb/s Channel(s) : 6 channels Channel layout : C L R Ls Rs LFE Sampling rate : 48.0 kHz Frame rate : 93.750 FPS (512 SPF) Bit depth : 24 bits Compression mode : Lossless Stream size : 2.54 GiB (13%) Title : Ava.2020.1080p.BluRay.REMUX.AVC.DTS-HD.MA.5.1-FGT Language : English Default : Yes Forced : No Original source medium : Blu-ray Audio #2 ID : 3 ID in the original source medium : 4353 (0x1101) Format : PCM Format settings : Little / Signed Codec ID : A_PCM/INT/LIT Duration : 1 h 36 min Bit rate mode : Constant Bit rate : 2 304 kb/s Channel(s) : 2 channels Sampling rate : 48.0 kHz Frame rate : 30.000 FPS (1600 SPF) Bit depth : 24 bits Stream size : 1.56 GiB (8%) Title : Ava.2020.1080p.BluRay.REMUX.AVC.DTS-HD.MA.5.1-FGT Language : English Default : No Forced : No Original source medium : Blu-ray Text #1 ID : 4 Format : UTF-8 Codec ID : S_TEXT/UTF8 Codec ID/Info : UTF-8 Plain Text Duration : 1 h 30 min Bit rate : 45 b/s Count of elements : 909 Stream size : 30.5 KiB (0%) Title : English-SRT Language : English Default : Yes Forced : No
August 21, 2020
Ava.2020.HDRip.XviD.AC3-EVO
Video and audio quality: 5/5 | Source: Official web stream

Submitted by: Mr. Meeseeks | Trust Rank level: Supreme Member
Format: Torrent | Site: 1337x
Container = Matroska (avi) Duration = 01:37:09.574 Filesize = 1 GiB Overall bitrate = 1 961 kb/s ViDEO Codec info = AVC High@L3 | V_MPEG4/ISO/AVC Resolution = 720x300 Display AR = 2.387 | 2.40:1 Bitrate = 1 590 kb/s Framerate = CFR 23.976 Color space = YUV Chroma subsampling = 4:2:0 Encoder = x264 - core 159 AUDiO Codec info = AC-3 | A_AC3 Channels = 6 Bitrate = CBR 384 kb/s Samplerate = 48.0 kHz Language = English
August 18, 2020
Ava.2020.HDCAM.850MB.c1nem4.x264-SUNSCREEN[TGx]
Video and audio quality: 1/5 | Source: Camera

Submitted by: Costa | Trust Rank level: Legend Member
Format: Torrent | Site: torrentgalaxy
Please be advised this upload has ads cut or watermarked into the video.

Videos Add media

Ava Trailer #1 (2020) | Movieclips Trailers
Ava Trailer #1 (2020) | Movieclips Trailers