Escape Plan 2: Hades

Escape Plan 2: Hades

Mr. MeeseeksMr. Meeseeks   May 16, 2018  
News (0)
Add to list
Escape Plan 2: Hades

Movie info

TITLE
Confirmed and upcoming movie titles only! Search before adding to avoid dupes.
YEAR
The year the movie is set to be released.
2018
GENRE
Pick one or multiple movie genres.
CINEMA
First cinema release date in any country.
June 29, 2018
DESCRIPTION
Believe it or not, Ray Breslin is once again inside a high security prison. Sounds like he could use an escape plan.....two.

The cast includes Sylvester Stallone, Dave Bautista, Jaime King, Wes Chatham, 50 Cent, Jesse Metcalfe, Baylee Curran, Lydia Hull, Ashley Cusato, and Vincent Young.
WHERE YOU WATCH

Where you watch Email alert

The movie is online and reported below, Use the alert button to get notified when higher quality versions are available.

Reports

June 15, 2018
Escape.Plan.2.Hades.2018.1080p.BluRay.x264.DTS-HDC
Video and audio quality: 5/5 | Source: BluRay

Submitted by: Mr. Meeseeks | Trust Rank level: Legend Member
Format: Torrent | Site: RARBG
Video ID : 1 Format : AVC Format/Info : Advanced Video Codec Format profile : [email protected] Format settings : CABAC / 5 Ref Frames Format settings, CABAC : Yes Format settings, ReFrames : 5 frames Codec ID : V_MPEG4/ISO/AVC Duration : 1 h 33 min Bit rate : 16.8 Mb/s Width : 1 920 pixels Height : 804 pixels Display aspect ratio : 2.40:1 Frame rate mode : Constant Frame rate : 23.976 (24000/1001) FPS Color space : YUV Chroma subsampling : 4:2:0 Bit depth : 8 bits Scan type : Progressive Bits/(Pixel*Frame) : 0.454 Stream size : 11.0 GiB (92%) Title : Escape.Plan.2.Hades.2018.1080p.BluRay.x264.DTS-HDC Writing library : x264 core 148 r2665kMod a01e339 Encoding settings : cabac=1 / ref=5 / deblock=1:-3:-3 / analyse=0x3:0x133 / me=umh / subme=11 / psy=1 / fade_compensate=0.00 / psy_rd=1.05:0.00 / mixed_ref=1 / me_range=48 / chroma_me=1 / trellis=2 / 8x8dct=1 / cqm=0 / deadzone=21,11 / fast_pskip=0 / chroma_qp_offset=-2 / threads=24 / lookahead_threads=4 / sliced_threads=0 / nr=0 / decimate=0 / interlaced=0 / bluray_compat=0 / constrained_intra=0 / fgo=0 / bframes=8 / b_pyramid=2 / b_adapt=2 / b_bias=0 / direct=3 / weightb=1 / open_gop=0 / weightp=2 / keyint=240 / keyint_min=24 / scenecut=40 / intra_refresh=0 / rc=2pass / mbtree=0 / bitrate=16800 / ratetol=1.0 / qcomp=0.70 / qpmin=0 / qpmax=69 / qpstep=4 / cplxblur=20.0 / qblur=0.5 / ip_ratio=1.20 / pb_ratio=1.20 / aq=3:0.80 Default : Yes Forced : No Audio ID : 2 Format : DTS Format/Info : Digital Theater Systems Codec ID : A_DTS Duration : 1 h 33 min Bit rate mode : Constant Bit rate : 1 509 kb/s Channel(s) : 6 channels Channel positions : Front: L C R, Side: L R, LFE Sampling rate : 48.0 kHz Frame rate : 93.750 FPS (512 SPF) Bit depth : 24 bits Compression mode : Lossy Stream size : 1 011 MiB (8%) Title : Escape.Plan.2.Hades.2018.1080p.BluRay.x264.DTS-HDC Language : English Default : Yes Forced : No Text ID : 3 Format : UTF-8 Codec ID : S_TEXT/UTF8 Codec ID/Info : UTF-8 Plain Text Duration : 1 h 24 min Bit rate : 45 b/s Count of elements : 849 Stream size : 28.2 KiB (0%) Language : English Default : Yes Forced : No Menu 00:00:00.000 : en:00:00:00.000 00:05:48.890 : en:00:05:48.890 00:12:17.445 : en:00:12:17.445 00:16:28.988 : en:00:16:28.988 00:22:49.368 : en:00:22:49.368 00:27:16.134 : en:00:27:16.134 00:34:32.654 : en:00:34:32.654 00:40:00.398 : en:00:40:00.398 00:46:51.600 : en:00:46:51.600 00:51:58.949 : en:00:51:58.949 00:58:57.242 : en:00:58:57.242 01:04:10.013 : en:01:04:10.013 01:09:56.400 : en:01:09:56.400 01:14:52.738 : en:01:14:52.738 01:20:44.214 : en:01:20:44.214 01:25:59.571 : en:01:25:59.571
June 15, 2018
Escape Plan 2 Hades.2018.DVDRip.XviD.AC3-EVO
Video and audio quality: 5/5 | Source: DVD

Submitted by: Mr. Meeseeks | Trust Rank level: Legend Member
Format: Torrent | Site: 1337x
ViDEO: 1700 Kbps -2 Passes RESOLUTiON: 720x304 RUNTiME: 1h 33m 43s SUBTiTLES: No. AUDiO: 448 Kbps AC3 5.1 LANGUAGE: ENGLiSH ENCODER: DdHD

Videos Add media

Escape Plan 2 (2018 Movie) Trailer - Sylvester Stallone, Dave Bautista, Curtis Jackson
Escape Plan 2 (2018 Movie) Trailer - Sylvester Sta...

Movie News

There are no member news items for this movie.
To write a comment please register or