Enter The Fat Dragon

Enter The Fat Dragon

Hot
Mr. MeeseeksMr. Meeseeks   February 06, 2020  
Add to list
Enter The Fat Dragon

Movie info

Title
Confirmed and upcoming movie titles only! Search before adding to avoid dupes.
Enter The Fat Dragon
Year
The year the movie is set to be released.
2020
Director
Kenji Tanigaki
Genre
Pick one or multiple movie genres.
Cinema release
First cinema release date in any country.
January 23, 2020
Description
Also known as Fei lung gwoh gong. Surprisingly not super bad reviews, with a 5.6 iMDB rating as of now. Starring Donnie Yen, Teresa Mo, Niki Chow, Wong Jing, Jessica Jann, and Philip Ng.
Where you watch

Where you watch Email alert

Yes, it is available and reported below. Use the alert button to get notified when higher quality versions are available.

Download and stream reports

Is there a Enter The Fat Dragon torrent? Yes. Reports are available below.
When will Enter The Fat Dragon be available on digital platforms like iTunes, Amazon or Apple+? As of now, there's no release date announced. This includes iTunes, Amazon, Blu-Ray and DVD.

May 01, 2020
Enter.the.Fat.Dragon.2020.CHINESE.1080p.BluRay.x264-iKiW
Video and audio quality: 5/5 | Source: Official web stream

Submitted by: Mr. Meeseeks | Trust Rank level: Supreme Member
Format: Torrent | Site: RARBG
Video ID : 1 Format : AVC Format/Info : Advanced Video Codec Format profile : High@L4.1 Format settings : CABAC / 5 Ref Frames Format settings, CABAC : Yes Format settings, Reference frames : 5 frames Codec ID : V_MPEG4/ISO/AVC Duration : 1 h 36 min Bit rate : 12.1 Mb/s Width : 1 920 pixels Height : 804 pixels Display aspect ratio : 2.40:1 Frame rate mode : Constant Frame rate : 24.000 FPS Color space : YUV Chroma subsampling : 4:2:0 Bit depth : 8 bits Scan type : Progressive Bits/(Pixel*Frame) : 0.326 Stream size : 8.13 GiB (95%) Writing library : x264 core 129 r2245 bc13772 Encoding settings : cabac=1 / ref=5 / deblock=1:-3:-3 / analyse=0x3:0x133 / me=umh / subme=11 / psy=1 / psy_rd=1.05:0.05 / mixed_ref=1 / me_range=64 / chroma_me=1 / trellis=2 / 8x8dct=1 / cqm=0 / deadzone=21,11 / fast_pskip=0 / chroma_qp_offset=-3 / threads=12 / lookahead_threads=2 / sliced_threads=0 / nr=0 / decimate=1 / interlaced=0 / bluray_compat=0 / constrained_intra=0 / bframes=10 / b_pyramid=2 / b_adapt=2 / b_bias=0 / direct=3 / weightb=1 / open_gop=0 / weightp=2 / keyint=250 / keyint_min=24 / scenecut=40 / intra_refresh=0 / rc_lookahead=60 / rc=2pass / mbtree=1 / bitrate=12067 / ratetol=1.0 / qcomp=0.60 / qpmin=0 / qpmax=69 / qpstep=4 / cplxblur=20.0 / qblur=0.5 / vbv_maxrate=40000 / vbv_bufsize=30000 / nal_hrd=none / ip_ratio=1.40 / aq=1:0.80 Language : English Default : Yes Forced : No Audio ID : 2 Format : AC-3 Format/Info : Audio Coding 3 Commercial name : Dolby Digital Codec ID : A_AC3 Duration : 1 h 36 min Bit rate mode : Constant Bit rate : 640 kb/s Channel(s) : 6 channels Channel layout : L R C LFE Ls Rs Sampling rate : 48.0 kHz Frame rate : 31.250 FPS (1536 SPF) Bit depth : 16 bits Compression mode : Lossy Stream size : 442 MiB (5%) Title : 粤语 Language : Chinese Service kind : Complete Main Default : Yes Forced : No Text #1 ID : 3 Format : UTF-8 Codec ID : S_TEXT/UTF8 Codec ID/Info : UTF-8 Plain Text Duration : 1 h 30 min Bit rate : 63 b/s Count of elements : 1556 Stream size : 42.0 KiB (0%) Language : English Default : Yes Forced : No Text #2 ID : 4 Format : UTF-8 Codec ID : S_TEXT/UTF8 Codec ID/Info : UTF-8 Plain Text Duration : 1 h 30 min Bit rate : 47 b/s Count of elements : 1543 Stream size : 31.4 KiB (0%) Title : 简体 Language : Chinese Default : No Forced : No Text #3 ID : 5 Format : UTF-8 Codec ID : S_TEXT/UTF8 Codec ID/Info : UTF-8 Plain Text Duration : 1 h 30 min Bit rate : 47 b/s Count of elements : 1556 Stream size : 31.5 KiB (0%) Title : 繁体 Language : Chinese Default : No Forced : No

Videos Add media

ENTER THE FAT DRAGON (2020) Official Trailer | Donnie Yen Martial Arts Movie
ENTER THE FAT DRAGON (2020) Official Trailer | Don...