Emma

Hot
Mr. MeeseeksMr. Meeseeks   November 21, 2019  
Add to list
Emma

Movie info

Title
Confirmed and upcoming movie titles only! Search before adding to avoid dupes.
Emma
Year
The year the movie is set to be released.
2020
Genre
Pick one or multiple movie genres.
Cinema release
First cinema release date in any country.
February 14, 2020
Digital release
Official digital release date on services such as iTunes, Amazon, Netflix. It's the first known release date, without any country restriction. So if it's out on iTunes Russia first, this would be the digital release date.
March 20, 2020
Description
Starring Anya Taylor-Joy, Johnny Flynn, Bill Nighy, Mia Goth, Miranda Hart, Josh O'Connor, Callum Turner, Rupert Graves, Gemma Whelan, Amber Anderson, Tanya Reynolds, and Connor Swindells.
Where you watch

Where you watch Email alert

Yes. The movie is online and reported below, Use the alert button to get notified when higher quality versions are available.

Download and stream reports

Can I download or stream Emma? Yes. Reports of pirated torrents and streams are available below.
When will Emma be available on digital platforms like iTunes or Amazon? It's set for a March 20, 2020 release. This likely includes iTunes and Amazon unless it is an exclusive Netflix, or similar, release. Physical versions on Blu-Ray or DVD will likely follow.

May 08, 2020
Emma.2020.1080p.BluRay.x264.DTS-HD.MA.5.1-MT
Video and audio quality: 5/5 | Source: BluRay

Submitted by: Mr. Meeseeks | Trust Rank level: Supreme Member
Format: Torrent | Site: RARBG
Video ID : 1 Format : AVC Format/Info : Advanced Video Codec Format profile : High@L4.1 Format settings : CABAC / 4 Ref Frames Format settings, CABAC : Yes Format settings, Reference frames : 4 frames Codec ID : V_MPEG4/ISO/AVC Duration : 2 h 4 min Bit rate : 13.6 Mb/s Width : 1 920 pixels Height : 1 080 pixels Display aspect ratio : 16:9 Frame rate mode : Constant Frame rate : 23.976 (24000/1001) FPS Color space : YUV Chroma subsampling : 4:2:0 Bit depth : 8 bits Scan type : Progressive Bits/(Pixel*Frame) : 0.274 Stream size : 11.8 GiB (80%) Writing library : x264 core 157 r2938 2b00a84 TnP@MTeam Mod Encoding settings : cabac=1 / ref=4 / deblock=1:-3:-3 / analyse=0x3:0x133 / me=umh / subme=10 / psy=1 / psy_rd=1.05:0.00 / mixed_ref=1 / me_range=32 / chroma_me=1 / trellis=2 / 8x8dct=1 / cqm=0 / deadzone=21,11 / fast_pskip=0 / chroma_qp_offset=-2 / threads=12 / lookahead_threads=2 / sliced_threads=0 / nr=0 / decimate=0 / interlaced=0 / bluray_compat=0 / constrained_intra=0 / bframes=8 / b_pyramid=2 / b_adapt=2 / b_bias=0 / direct=3 / weightb=1 / open_gop=0 / weightp=2 / keyint=250 / keyint_min=24 / scenecut=40 / intra_refresh=0 / rc_lookahead=250 / rc=crf / mbtree=0 / crf=16.8 / qcomp=0.60 / qpmin=0 / qpmax=69 / qpstep=4 / vbv_maxrate=62500 / vbv_bufsize=78125 / crf_max=0.0 / nal_hrd=none / filler=0 / ip_ratio=1.30 / pb_ratio=1.20 / aq=3:0.80 Language : English Default : Yes Forced : No Color range : Limited Color primaries : BT.709 Matrix coefficients : BT.709 Audio ID : 2 Format : DTS XLL Format/Info : Digital Theater Systems Commercial name : DTS-HD Master Audio Codec ID : A_DTS Duration : 2 h 4 min Bit rate mode : Variable Bit rate : 3 395 kb/s Channel(s) : 6 channels Channel layout : C L R Ls Rs LFE Sampling rate : 48.0 kHz Frame rate : 93.750 FPS (512 SPF) Bit depth : 24 bits Compression mode : Lossless Stream size : 2.95 GiB (20%) Language : English Default : Yes Forced : No Text #1 ID : 3 Format : UTF-8 Codec ID : S_TEXT/UTF8 Codec ID/Info : UTF-8 Plain Text Duration : 1 h 58 min Bit rate : 59 b/s Count of elements : 1355 Stream size : 51.4 KiB (0%) Title : English-SRT Language : English Default : Yes Forced : No Text #2 ID : 4 Format : PGS Muxing mode : zlib Codec ID : S_HDMV/PGS Codec ID/Info : Picture based subtitle format used on BDs/HD-DVDs Duration : 2 h 2 min Bit rate : 42.7 kb/s Count of elements : 3028 Stream size : 37.5 MiB (0%) Title : English-PGS Language : English Default : No Forced : No
March 20, 2020
Emma.2020.1080p.WEB-DL.H264.AC3-EVO
Video and audio quality: 5/5 | Source: Official web stream

Submitted by: Denzel | Trust Rank level: Jr. Member
Format: Torrent | Site: torrentgalaxy
MEDIAINFO Container = Matroska (mkv) Duration = 01:59:37.000 Filesize = 5 GiB Overall bitrate = 5 395 kb/s Video Codec info = AVC High@L4.1 | V_MPEG4/ISO/AVC Resolution = 1920x1080 Display AR = 1.778 | 16:9 Bitrate = 4 904 kb/s Framerate = CFR 25.000 Color space = YUV Chroma subsampling = 4:2:0 Encoder = Audio Codec info = AC-3 | A_AC3 Channels = 6 Bitrate = CBR 384 kb/s Samplerate = 48.0 kHz Language = English
February 16, 2020
Emma.2020.HDCAM.850MB.c1nem4.x264-SUNSCREEN
Video and audio quality: 1/5 | Source: Camera

Submitted by: Mr. Meeseeks | Trust Rank level: Supreme Member
Format: Torrent | Site: TorrentGalaxy
Container = Matroska (mkv) Duration = 01:58:09.173 Filesize = 847 MiB Overall bitrate = 1 003 kb/s Video Codec info = AVC High@L3 | V_MPEG4/ISO/AVC Resolution = 720x400 Display AR = 1.778 | 16:9 Bitrate = 3 101 kb/s Framerate = VFR 23.976 Color space = YUV Chroma subsampling = 4:2:0 Encoder = x264 - core 157 Audio Codec info = AAC | A_AAC-2 Channels = 2 Bitrate = 224 kb/s Samplerate = 48.0 kHz Language = English

Videos Add media

Emma – Official Teaser Trailer
Emma – Official Teaser Trailer