Elvis

Elvis

Hot
Mr. MeeseeksMr. Meeseeks   May 04, 2020  
Add to list
Elvis

Movie info

Title
Confirmed and upcoming movie titles only! Search before adding to avoid dupes.
Elvis
Year
The year the movie is set to be released.
2022
Director
Baz Luhrmann
Genre
Pick one or multiple movie genres.
Cinema release
First cinema release date in any country.
June 23, 2022
Description
Starring Austin Butler, Tom Hanks, Olivia DeJonge, Maggie Gyllenhaal, and Rufus Sewell.
Where you watch

Where you watch Email alert

Yes, it is available and reported below. Use the alert button to get notified when higher quality versions are available.

Download and stream reports

Is there a Elvis torrent? Yes. Reports are available below.
When will Elvis be available on digital platforms like iTunes, Amazon or Apple+? As of now, there's no release date announced. This includes iTunes, Amazon, Blu-Ray and DVD.

August 07, 2022
Elvis.2022.2160p.WEB-DL.DDP5.1.Atmos.HDR.HEVC-CMRG [28.05 GB]
Video and audio quality: 5/5 | Source: Official web stream

Submitted by: BlueSkull | Trust Rank level: Professional
Format: Torrent | Site: torrent
August 07, 2022
Elvis.2022.1080p.WEBRip.DDP5.1.Atmos.x264-CM
Video and audio quality: 5/5 | Source: Official web stream

Submitted by: Mr. Meeseeks | Trust Rank level: Supreme Member
Format: Torrent | Site: RARBG
Video ID : 1 Format : AVC Format/Info : Advanced Video Codec Format profile : High@L4 Format settings : CABAC / 5 Ref Frames Format settings, CABAC : Yes Format settings, Reference frames : 5 frames Codec ID : V_MPEG4/ISO/AVC Duration : 2 h 39 min Bit rate : 6 616 kb/s Width : 1 920 pixels Height : 802 pixels Display aspect ratio : 2.40:1 Frame rate mode : Constant Frame rate : 23.976 (24000/1001) FPS Color space : YUV Chroma subsampling : 4:2:0 Bit depth : 8 bits Scan type : Progressive Bits/(Pixel*Frame) : 0.179 Stream size : 7.36 GiB (90%) Language : English Default : Yes Forced : No Color range : Limited Color primaries : BT.709 Transfer characteristics : BT.709 Matrix coefficients : BT.709 Audio ID : 2 Format : E-AC-3 JOC Format/Info : Enhanced AC-3 with Joint Object Coding Commercial name : Dolby Digital Plus with Dolby Atmos Codec ID : A_EAC3 Duration : 2 h 39 min Bit rate mode : Constant Bit rate : 768 kb/s Channel(s) : 6 channels Channel layout : L R C LFE Ls Rs Sampling rate : 48.0 kHz Frame rate : 31.250 FPS (1536 SPF) Compression mode : Lossy Stream size : 875 MiB (10%) Language : English Service kind : Complete Main Default : Yes Forced : No Complexity index : 16 Number of dynamic objects : 15 Bed channel count : 1 channel Bed channel configuration : LFE Text #1 ID : 3 Format : UTF-8 Codec ID : S_TEXT/UTF8 Codec ID/Info : UTF-8 Plain Text Duration : 2 h 39 min Bit rate : 88 b/s Frame rate : 0.296 FPS Count of elements : 2827 Stream size : 103 KiB (0%) Title : SDH Language : English Default : No Forced : No
July 06, 2022
Elvis.2022.HDCAM.850MB.x264-BONSAIHOOEY[TGx]
Video and audio quality: 1/5 | Source: Camera

Submitted by: Costa | Trust Rank level: Legend Member
Format: Torrent | Site: torrentgalaxy
Second CAM no ADS
July 02, 2022
Elvis.2022.720p.HDCAM-C1NEM4
Video and audio quality: 1/5 | Source: Camera

Submitted by: Costa | Trust Rank level: Legend Member
Format: Torrent | Site: torrentgalaxy
Please be advised this upload has ads cut or watermarked into the video.

Videos Add media

Baz Luhrmann’s ELVIS | Official Trailer
Baz Luhrmann’s ELVIS | Official Trailer