Elisa Y Marcela

Elisa Y Marcela

Mr. MeeseeksMr. Meeseeks   April 01, 2019  
Add to list
Elisa Y Marcela

Movie info

TITLE
Confirmed and upcoming movie titles only! Search before adding to avoid dupes.
Elisa Y Marcela
YEAR
The year the movie is set to be released.
2019
GENRE
Pick one or multiple movie genres.
CINEMA
First cinema release date in any country.
June 07, 2019
DESCRIPTION
Starring Natalia de Molina, Greta Fernández, Sara Casasnovas, Tamar Novas, and María Pujalte.
WHERE YOU WATCH

Where you watch Email alert

The movie is online and reported below, Use the alert button to get notified when higher quality versions are available.

Reports

Is Elisa Y Marcela available online? Yes. Reports of pirated torrents and streams are available below.
When will Elisa Y Marcela be available on digital platforms like iTunes or Amazon? As of now, there's no release data announced. This includes iTunes, Amazon, Blu-Ray and DVD.

June 07, 2019
Elisa.and.Marcela.2019.DUBBED.WEBRip.x264-ION10
Video and audio quality: 5/5 | Source: Official web stream

Submitted by: Mr. Meeseeks | Trust Rank level: Supreme Member
Format: Torrent | Site: RARBG
ideo ID : 1 Format : AVC Format/Info : Advanced Video Codec Format profile : [email protected] Format settings : CABAC / 5 Ref Frames Format settings, CABAC : Yes Format settings, ReFrames : 5 frames Codec ID : avc1 Codec ID/Info : Advanced Video Coding Duration : 1 h 58 min Bit rate : 1 100 kb/s Width : 720 pixels Height : 390 pixels Display aspect ratio : 1.85:1 Original display aspect ratio : 1.85:1 Frame rate mode : Constant Frame rate : 25.000 FPS Color space : YUV Chroma subsampling : 4:2:0 Bit depth : 8 bits Scan type : Progressive Bits/(Pixel*Frame) : 0.157 Stream size : 934 MiB (81%) Title : RARBG - Elisa.and.Marcela.2019.DUBBED.WEBRip.x264-ION10 Writing library : x264 core 152 r2851M ba24899 Encoding settings : cabac=1 / ref=5 / deblock=1:-1:-1 / analyse=0x3:0x113 / me=umh / subme=9 / psy=1 / psy_rd=1.00:0.15 / mixed_ref=1 / me_range=16 / chroma_me=1 / trellis=2 / 8x8dct=1 / cqm=0 / deadzone=21,11 / fast_pskip=1 / chroma_qp_offset=-3 / threads=16 / lookahead_threads=1 / sliced_threads=0 / nr=0 / decimate=1 / interlaced=0 / bluray_compat=0 / constrained_intra=0 / bframes=3 / b_pyramid=2 / b_adapt=2 / b_bias=0 / direct=3 / weightb=1 / open_gop=0 / weightp=2 / keyint=250 / keyint_min=25 / scenecut=40 / intra_refresh=0 / rc_lookahead=50 / rc=2pass / mbtree=1 / bitrate=1100 / ratetol=1.0 / qcomp=0.60 / qpmin=0 / qpmax=69 / qpstep=4 / cplxblur=20.0 / qblur=0.5 / ip_ratio=1.40 / aq=1:1.00 Encoded date : UTC 2019-06-07 08:00:31 Tagged date : UTC 2019-06-07 08:00:31 Codec configuration box : avcC Audio ID : 2 Format : AAC LC Format/Info : Advanced Audio Codec Low Complexity Codec ID : mp4a-40-2 Duration : 1 h 58 min Duration_LastFrame : -11 ms Bit rate mode : Constant Bit rate : 256 kb/s Channel(s) : 2 channels Channel layout : L R Sampling rate : 48.0 kHz Frame rate : 46.875 FPS (1024 SPF) Compression mode : Lossy Stream size : 217 MiB (19%) Title : RARBG - Elisa.and.Marcela.2019.DUBBED.WEBRip.x264-ION10 Language : English Default : Yes Alternate group : 1 Encoded date : UTC 2019-06-07 08:00:31 Tagged date : UTC 2019-06-07 08:00:31

Videos Add media

Elisa and Marcela | Trailer | Netflix
Elisa and Marcela | Trailer | Netflix