Drowning

Drowning

Mr. MeeseeksMr. Meeseeks   October 11, 2019  
Add to list
Drowning

Movie info

Title
Confirmed and upcoming movie titles only! Search before adding to avoid dupes.
Drowning
Year
The year the movie is set to be released.
2019
Genre
Pick one or multiple movie genres.
Description
Starring Melora Walters, Mira Sorvino, Gil Bellows, Jay Mohr, Joanna Going, Christopher Backus, Steven Swadling, and Jim O'Heir.
Where you watch

Where you watch Email alert

Yes. The movie is online and reported below, Use the alert button to get notified when higher quality versions are available.

Download and stream reports

Can I download or stream Drowning? Yes. Reports of pirated torrents and streams are available below.
When will Drowning be available on digital platforms like iTunes, Amazon or Apple+? As of now, there's no release date announced. This includes iTunes, Amazon, Blu-Ray and DVD.

February 25, 2020
Drowning.2019.1080p.WEB-DL.DD5.1.H264-FGT
Video and audio quality: 5/5 | Source: Official web stream

Submitted by: Mr. Meeseeks | Trust Rank level: Supreme Member
Format: Torrent | Site: RARBG
Video ID : 1 Format : AVC Format/Info : Advanced Video Codec Format profile : High@L4 Format settings : CABAC / 4 Ref Frames Format settings, CABAC : Yes Format settings, Reference frames : 4 frames Codec ID : V_MPEG4/ISO/AVC Duration : 1 h 19 min Bit rate : 4 792 kb/s Width : 1 920 pixels Height : 1 008 pixels Display aspect ratio : 1.905 Frame rate mode : Constant Frame rate : 23.976 (23976/1000) FPS Color space : YUV Chroma subsampling : 4:2:0 Bit depth : 8 bits Scan type : Progressive Bits/(Pixel*Frame) : 0.103 Stream size : 2.68 GiB (93%) Title : Drowning.2019.1080p.WEB-DL.DD5.1.H264-FGT Language : English Default : Yes Forced : No Color range : Limited Color primaries : BT.709 Transfer characteristics : BT.709 Matrix coefficients : BT.709 Audio ID : 2 Format : AC-3 Format/Info : Audio Coding 3 Commercial name : Dolby Digital Codec ID : A_AC3 Duration : 1 h 19 min Bit rate mode : Constant Bit rate : 384 kb/s Channel(s) : 6 channels Channel layout : L R C LFE Ls Rs Sampling rate : 48.0 kHz Frame rate : 31.250 FPS (1536 SPF) Bit depth : 16 bits Compression mode : Lossy Stream size : 220 MiB (7%) Title : Drowning.2019.1080p.WEB-DL.DD5.1.H264-FGT Language : English Service kind : Complete Main Default : Yes Forced : No Text ID : 3 Format : UTF-8 Codec ID : S_TEXT/UTF8 Codec ID/Info : UTF-8 Plain Text Duration : 1 h 16 min Bit rate : 48 b/s Count of elements : 772 Stream size : 27.3 KiB (0%) Language : English Default : Yes Forced : No

Videos Add media

"Drowning" Trailer
"Drowning" Trailer