Doctor Sleep

Doctor Sleep

Hot
Mr. MeeseeksMr. Meeseeks   January 26, 2018  
Add to list
Doctor Sleep
The Shining 2

Movie info

Title
Confirmed and upcoming movie titles only! Search before adding to avoid dupes.
Doctor Sleep
Year
The year the movie is set to be released.
2019
Genre
Pick one or multiple movie genres.
Cinema release
First cinema release date in any country.
November 01, 2019
Digital release
Official digital release date on services such as iTunes, Amazon, Netflix. It's the first known release date, without any country restriction. So if it's out on iTunes Russia first, this would be the digital release date.
January 21, 2020
Description
Labeled by some as The Shining 2.
It’s been almost five years since Stephen King published the highly anticipated sequel to his novel “The Shining”. Now, plans are finally moving forward at Warner Bros. for “Doctor Sleep” to be brought onto the silver screen. Mike Flanagan has signed on to direct as well as revise the script, whom has added numerous acclaimed thrillers to his portfolio in the last decade.

Starring Ewan McGregor, Kyliegh Curran, Bruce Greenwood, Zahn McClarnon, Emily Alyn Lind, Jocelin Donahue, Jacob Tremblay, Carl Lumbly, and Alex Essoe.
Where you watch

Where you watch Email alert

Yes, it is available and reported below. Use the alert button to get notified when higher quality versions are available.

Download and stream reports

Can I download or stream Doctor Sleep? Yes. Reports of pirated torrents and streams are available below.
When will Doctor Sleep be available on digital platforms like iTunes or Amazon? It's set for a January 21, 2020 release. This likely includes iTunes and Amazon unless it is an exclusive Netflix, or similar, release. Physical versions on Blu-Ray or DVD will likely follow.

February 14, 2020
Doctor.Sleep.2019.DC.1080p.BluRay.REMUX.AVC.DTS-HD.MA.TrueHD.7.1.Atmos-FGT
Video and audio quality: 5/5 | Source: BluRay

Submitted by: Mr. Meeseeks | Trust Rank level: Supreme Member
Format: Torrent | Site: RARBG
Video ID : 1 Format : AVC Format/Info : Advanced Video Codec Format profile : High@L4.1 Format settings : CABAC / 4 Ref Frames Format settings, CABAC : Yes Format settings, Reference frames : 4 frames Codec ID : V_MPEG4/ISO/AVC Duration : 3 h 0 min Bit rate mode : Variable Bit rate : 23.8 Mb/s Maximum bit rate : 29.5 Mb/s Width : 1 920 pixels Height : 1 080 pixels Display aspect ratio : 16:9 Frame rate mode : Constant Frame rate : 23.976 (24000/1001) FPS Color space : YUV Chroma subsampling : 4:2:0 Bit depth : 8 bits Scan type : Progressive Bits/(Pixel*Frame) : 0.480 Stream size : 30.0 GiB (72%) Title : Doctor.Sleep.2019.DC.1080p.BluRay.REMUX.AVC.DTS-HD.MA.TrueHD.7.1.Atmos-FGT Language : English Default : No Forced : No Audio #1 ID : 2 Format : MLP FBA 16-ch Format/Info : Meridian Lossless Packing FBA with 16-channel presentation Commercial name : Dolby TrueHD with Dolby Atmos Codec ID : A_TRUEHD Duration : 3 h 0 min Bit rate mode : Variable Bit rate : 3 797 kb/s Maximum bit rate : 7 026 kb/s Channel(s) : 8 channels Channel layout : L R C LFE Ls Rs Lb Rb Sampling rate : 48.0 kHz Frame rate : 1 200.000 FPS (40 SPF) Compression mode : Lossless Stream size : 4.78 GiB (12%) Title : Doctor.Sleep.2019.DC.1080p.BluRay.REMUX.AVC.DTS-HD.MA.TrueHD.7.1.Atmos-FGT Language : English Default : Yes Forced : No Number of dynamic objects : 15 Bed channel count : 1 channel Bed channel configuration : LFE Audio #2 ID : 3 Format : DTS XLL Format/Info : Digital Theater Systems Commercial name : DTS-HD Master Audio Codec ID : A_DTS Duration : 3 h 0 min Bit rate mode : Variable Bit rate : 4 092 kb/s Channel(s) : 8 channels Channel layout : C L R LFE Lb Rb Lss Rss Sampling rate : 48.0 kHz Frame rate : 93.750 FPS (512 SPF) Bit depth : 24 bits Compression mode : Lossless Stream size : 5.15 GiB (12%) Title : Doctor.Sleep.2019.DC.1080p.BluRay.REMUX.AVC.DTS-HD.MA.TrueHD.7.1.Atmos-FGT Language : English Default : No Forced : No Audio #3 ID : 4 Format : AC-3 Format/Info : Audio Coding 3 Commercial name : Dolby Digital Codec ID : A_AC3 Duration : 3 h 0 min Bit rate mode : Constant Bit rate : 640 kb/s Channel(s) : 6 channels Channel layout : L R C LFE Ls Rs Sampling rate : 48.0 kHz Frame rate : 31.250 FPS (1536 SPF) Bit depth : 16 bits Compression mode : Lossy Stream size : 825 MiB (2%) Title : Doctor.Sleep.2019.DC.1080p.BluRay.REMUX.AVC.DTS-HD.MA.TrueHD.7.1.Atmos-FGT Language : English Service kind : Complete Main Default : No Forced : No Audio #4 ID : 5 Format : AC-3 Format/Info : Audio Coding 3 Commercial name : Dolby Digital Codec ID : A_AC3 Duration : 3 h 0 min Bit rate mode : Constant Bit rate : 448 kb/s Channel(s) : 6 channels Channel layout : L R C LFE Ls Rs Sampling rate : 48.0 kHz Frame rate : 31.250 FPS (1536 SPF) Bit depth : 16 bits Compression mode : Lossy Stream size : 578 MiB (1%) Title : Doctor.Sleep.2019.DC.1080p.BluRay.REMUX.AVC.DTS-HD.MA.TrueHD.7.1.Atmos-FGT Language : English Service kind : Complete Main Default : No Forced : No Text #1 ID : 6 Format : UTF-8 Codec ID : S_TEXT/UTF8 Codec ID/Info : UTF-8 Plain Text Duration : 2 h 53 min Bit rate : 38 b/s Count of elements : 1971 Stream size : 49.1 KiB (0%) Title : English-SRT Language : English Default : Yes Forced : No Text #2 ID : 7 Format : PGS Muxing mode : zlib Codec ID : S_HDMV/PGS Codec ID/Info : Picture based subtitle format used on BDs/HD-DVDs Duration : 2 h 54 min Bit rate : 28.4 kb/s Count of elements : 4686 Stream size : 35.6 MiB (0%) Title : English-PGS Language : English Default : No Forced : No Text #3 ID : 8 Format : PGS Muxing mode : zlib Codec ID : S_HDMV/PGS Codec ID/Info : Picture based subtitle format used on BDs/HD-DVDs Duration : 2 h 53 min Bit rate : 18.1 kb/s Count of elements : 3742 Stream size : 22.4 MiB (0%) Title : Japanese-PGS Language : Japanese Default : No Forced : No Text #4 ID : 9 Format : PGS Muxing mode : zlib Codec ID : S_HDMV/PGS Codec ID/Info : Picture based subtitle format used on BDs/HD-DVDs Duration : 2 h 59 min Bit rate : 20.4 kb/s Count of elements : 3646 Stream size : 26.2 MiB (0%) Title : French-PGS Language : French Default : No Forced : No Text #5 ID : 10 Format : PGS Muxing mode : zlib Codec ID : S_HDMV/PGS Codec ID/Info : Picture based subtitle format used on BDs/HD-DVDs Duration : 2 h 57 min Bit rate : 32.4 kb/s Count of elements : 4620 Stream size : 41.0 MiB (0%) Title : German-PGS Language : German Default : No Forced : No Text #6 ID : 11 Format : PGS Muxing mode : zlib Codec ID : S_HDMV/PGS Codec ID/Info : Picture based subtitle format used on BDs/HD-DVDs Duration : 2 h 54 min Bit rate : 27.6 kb/s Count of elements : 4748 Stream size : 34.6 MiB (0%) Title : Italian-PGS Language : Italian Default : No Forced : No Text #7 ID : 12 Format : PGS Muxing mode : zlib Codec ID : S_HDMV/PGS Codec ID/Info : Picture based subtitle format used on BDs/HD-DVDs Duration : 2 h 59 min Bit rate : 22.6 kb/s Count of elements : 3924 Stream size : 29.0 MiB (0%) Title : Spanish-PGS Language : Spanish Default : No Forced : No Text #8 ID : 13 Format : PGS Muxing mode : zlib Codec ID : S_HDMV/PGS Codec ID/Info : Picture based subtitle format used on BDs/HD-DVDs Duration : 2 h 59 min Bit rate : 22.2 kb/s Count of elements : 3058 Stream size : 28.4 MiB (0%) Title : Dutch-PGS Language : Dutch Default : No Forced : No Text #9 ID : 14 Format : PGS Muxing mode : zlib Codec ID : S_HDMV/PGS Codec ID/Info : Picture based subtitle format used on BDs/HD-DVDs Duration : 2 h 53 min Bit rate : 24.5 kb/s Count of elements : 3972 Stream size : 30.4 MiB (0%) Title : Spanish-PGS Language : Spanish Default : No Forced : No Text #10 ID : 15 Format : PGS Muxing mode : zlib Codec ID : S_HDMV/PGS Codec ID/Info : Picture based subtitle format used on BDs/HD-DVDs Duration : 2 h 53 min Bit rate : 25.5 kb/s Count of elements : 3996 Stream size : 31.6 MiB (0%) Title : Portuguese-PGS Language : Portuguese Default : No Forced : No Text #11 ID : 16 Format : PGS Muxing mode : zlib Codec ID : S_HDMV/PGS Codec ID/Info : Picture based subtitle format used on BDs/HD-DVDs Duration : 2 h 59 min Bit rate : 22.0 kb/s Count of elements : 2844 Stream size : 28.2 MiB (0%) Title : Danish-PGS Language : Danish Default : No Forced : No Text #12 ID : 17 Format : PGS Muxing mode : zlib Codec ID : S_HDMV/PGS Codec ID/Info : Picture based subtitle format used on BDs/HD-DVDs Duration : 2 h 53 min Bit rate : 24.7 kb/s Count of elements : 3912 Stream size : 30.5 MiB (0%) Title : Finnish-PGS Language : Finnish Default : No Forced : No Text #13 ID : 18 Format : PGS Muxing mode : zlib Codec ID : S_HDMV/PGS Codec ID/Info : Picture based subtitle format used on BDs/HD-DVDs Duration : 2 h 53 min Bit rate : 22.3 kb/s Count of elements : 3298 Stream size : 27.6 MiB (0%) Title : Norwegian-PGS Language : Norwegian Default : No Forced : No Text #14 ID : 19 Format : PGS Muxing mode : zlib Codec ID : S_HDMV/PGS Codec ID/Info : Picture based subtitle format used on BDs/HD-DVDs Duration : 2 h 53 min Bit rate : 24.2 kb/s Count of elements : 3958 Stream size : 29.9 MiB (0%) Title : Swedish-PGS Language : Swedish Default : No Forced : No
January 21, 2020
Doctor Sleep 2019 1080p WEB-DL H264 AC3-EVO
Video and audio quality: 5/5 | Source: Official web stream

Submitted by: MindOfJigsaw | Trust Rank level: Standard member
Format: Torrent | Site: IPTorrents
RELEASE: Doctor.Sleep.2019.1080p.WEB-DL.H264.AC3-EVO SOURCE: F-Now :) ViDEO: 4500 Kbps - Untouched video file RESOLUTiON: 1920x1080 RUNTiME: 2h 31m SUBTiTLES: No. AUDiO: 384 Kbps AC3 5.1 LANGUAGE: ENGLiSH ENCODER: MUSE SPECIAL THANKS TO: DdHD & KING_DVD & HITMAN & SR & Warm & MUSE! NOTES: Enjoy.
January 21, 2020
Doctor Sleep 2019 Directors Cut 1080p WEB-DL H264 AC3-EVO
Video and audio quality: 5/5 | Source: Official web stream

Submitted by: MindOfJigsaw | Trust Rank level: Standard member
Format: Torrent | Site: IPTorrents
RELEASE: Doctor.Sleep.2019.Directors.Cut.1080p.WEB-DL.H264.AC3-EVO SOURCE: F-Now :) ViDEO: 5100 Kbps - Untouched video file RESOLUTiON: 1920x1080 RUNTiME: 3h 1m SUBTiTLES: No. AUDiO: 384 Kbps AC3 5.1 LANGUAGE: ENGLiSH ENCODER: MUSE SPECIAL THANKS TO: DdHD & KING_DVD & HITMAN & SR & Warm & MUSE! NOTES: Extra 30m, of footage. Enjoy.
January 21, 2020
Doctor.Sleep.2019.DC.1080p.WEBRip.DD5.1.x264-CM
Video and audio quality: 5/5 | Source: Official web stream

Submitted by: armiestice | Trust Rank level: Senior Member
Format: Torrent | Site: RARBG
December 07, 2019
Doctor.Sleep.2019.HC.1080p.HDRip.X264.AC3-EVO
Video and audio quality: 4/5 | Source: Foreign web stream

Submitted by: Ivana 🌿 | Trust Rank level: Legend Member
Format: Torrent | Site: TorrentGalaxy
Duration: 2hs 26min Resolution: 1920x1040 Language: English Subtitles: Korean HC
November 01, 2019
Doctor Sleep 2019 720p HDCAM-GETB8
Video and audio quality: 1/5 | Source: Camera

Submitted by: Costa | Trust Rank level: Hero member
Format: Torrent | Site: torrentgalaxy
Please be advised this upload has ads cut or watermarked into the video.
Load More

Videos Add media

Doctors Sleep: Trailer
Doctors Sleep: Trailer