Disturbing The Peace

Disturbing The Peace

Mr. MeeseeksMr. Meeseeks   December 25, 2019  
Add to list
Disturbing The Peace

Movie info

TITLE
Confirmed and upcoming movie titles only! Search before adding to avoid dupes.
Disturbing The Peace
YEAR
The year the movie is set to be released.
2020
GENRE
Pick one or multiple movie genres.
DIGITAL RELEASE
Official digital release date on services such as iTunes, Amazon, Netflix. It's the first known release date, without any country restriction. So if it's out on iTunes Russia first, this would be the digital release date.
January 17, 2020
DESCRIPTION
Starring Guy Pearce, Devon Sawa, Kelly Greyson, Michael Sirow, Barbie Blank, Jacob Grodnik, Michael Bellisario, Dwayne Cameron, Elle E. Wallace, and Jay Willick.
WHERE YOU WATCH

Where you watch Email alert

The movie is online and reported below, Use the alert button to get notified when higher quality versions are available.

Reports

Is Disturbing The Peace available online? Yes. Reports of pirated torrents and streams are available below.
When will Disturbing The Peace be available on digital platforms like iTunes or Amazon? It's set for a January 17, 2020 release. This likely includes iTunes and Amazon unless it is an exclusive Netflix, or similar, release. Physical versions on Blu-Ray or DVD will likely follow.

February 14, 2020
Disturbing.the.Peace.2020.1080p.BluRay.x264.DTS-HD.MA.5.1-FGT
Video and audio quality: 5/5 | Source: BluRay

Submitted by: Mr. Meeseeks | Trust Rank level: Supreme Member
Format: Torrent | Site: RARBG
Video ID : 1 Format : AVC Format/Info : Advanced Video Codec Format profile : [email protected] Format settings : CABAC / 4 Ref Frames Format settings, CABAC : Yes Format settings, Reference frames : 4 frames Codec ID : V_MPEG4/ISO/AVC Duration : 1 h 30 min Bit rate : 8 815 kb/s Width : 1 920 pixels Height : 960 pixels Display aspect ratio : 2.000 Frame rate mode : Constant Frame rate : 23.976 (24000/1001) FPS Color space : YUV Chroma subsampling : 4:2:0 Bit depth : 8 bits Scan type : Progressive Bits/(Pixel*Frame) : 0.199 Stream size : 5.59 GiB (82%) Title : Disturbing.the.Peace.2020.1080p.BluRay.x264.DTS-HD.MA.5.1-FGT Writing library : x264 core 159 r2991 1771b55 Encoding settings : cabac=1 / ref=4 / deblock=1:-3:-3 / analyse=0x3:0x133 / me=umh / subme=7 / psy=1 / psy_rd=1.00:0.00 / mixed_ref=1 / me_range=16 / chroma_me=1 / trellis=2 / 8x8dct=1 / cqm=0 / deadzone=21,11 / fast_pskip=1 / chroma_qp_offset=-2 / threads=16 / lookahead_threads=2 / sliced_threads=0 / nr=0 / decimate=1 / interlaced=0 / bluray_compat=0 / constrained_intra=0 / bframes=3 / b_pyramid=2 / b_adapt=2 / b_bias=0 / direct=3 / weightb=1 / open_gop=0 / weightp=2 / keyint=250 / keyint_min=23 / scenecut=40 / intra_refresh=0 / rc_lookahead=50 / rc=2pass / mbtree=1 / bitrate=8815 / ratetol=1.0 / qcomp=0.60 / qpmin=0 / qpmax=69 / qpstep=4 / cplxblur=20.0 / qblur=0.5 / ip_ratio=1.40 / aq=1:1.00 Language : English Default : Yes Forced : No Color range : Limited Matrix coefficients : BT.709 Audio ID : 2 Format : DTS XLL Format/Info : Digital Theater Systems Commercial name : DTS-HD Master Audio Codec ID : A_DTS Duration : 1 h 30 min Bit rate mode : Variable Bit rate : 1 963 kb/s Channel(s) : 6 channels Channel layout : C L R Ls Rs LFE Sampling rate : 48.0 kHz Frame rate : 93.750 FPS (512 SPF) Bit depth : 16 bits Compression mode : Lossless Stream size : 1.25 GiB (18%) Title : Disturbing.the.Peace.2020.1080p.BluRay.x264.DTS-HD.MA.5.1-FGT Language : English Default : Yes Forced : No Text #1 ID : 3 Format : UTF-8 Codec ID : S_TEXT/UTF8 Codec ID/Info : UTF-8 Plain Text Duration : 1 h 23 min Bit rate : 33 b/s Count of elements : 746 Stream size : 20.3 KiB (0%) Title : English-SRT Language : English Default : Yes Forced : No Text #2 ID : 4 Format : PGS Muxing mode : zlib Codec ID : S_HDMV/PGS Codec ID/Info : Picture based subtitle format used on BDs/HD-DVDs Duration : 1 h 24 min Bit rate : 26.3 kb/s Count of elements : 1747 Stream size : 16.0 MiB (0%) Title : English-PGS Language : English Default : No Forced : No
January 17, 2020
Disturbing the Peace.2020.1080p.WEB-DL.H264.AC3-EVO
Video and audio quality: 5/5 | Source: Official web stream

Submitted by: Ivana 🌿 | Trust Rank level: Legend Member
Format: Torrent | Site: TorrentGalaxy
Duration: 1h 30min Resolution: 1920x960 Language: English

Videos Add media

DISTURBING THE PEACE - Official Trailer
DISTURBING THE PEACE - Official Trailer