Disobedience

Disobedience

Hot
Mr. MeeseeksMr. Meeseeks   February 01, 2018  
News (0)
Add to list
Disobedience

Movie info

TITLE
Confirmed and upcoming movie titles only! Search before adding to avoid dupes.
YEAR
The year the movie is set to be released.
2018
GENRE
Pick one or multiple movie genres.
CINEMA
First cinema release date in any country.
April 27, 2018
DESCRIPTION
The drama “Disobedience” is the first English-language feature film from director Sebastián Lelio. Rachel Weisz, and Rachel McAdams star in this motion picture adapted from Naomi Alderman‘s novel of the same name.
WHERE YOU WATCH

Where you watch Email alert

The movie is online and reported below, Use the alert button to get notified when higher quality versions are available.

Reports

July 05, 2018
Disobedience.2017.1080p.BluRay.x264-DRONES
Video and audio quality: 5/5 | Source: BluRay

Submitted by: Ивана | Trust Rank level: Hero member
Format: Torrent | Site: RARBG
Visual: 1920x808 9410Kbps 23.976 Acoustic: English DTS 1509Kbps 6ch Textual: English Target Size: 8950MB
May 15, 2018
Disobedience 2018 720p HDCAM X264-SugarTits
Video and audio quality: 1/5 | Source: Camera

Submitted by: Mr. Meeseeks | Trust Rank level: Legend Member
Format: Torrent | Site: 1337x
Format : MPEG-4 File size : 1.66 GiB Duration : 1 h 49 min Overall bit rate mode : Variable Overall bit rate : 2 176 kb/s Video ID : 1 Format : AVC Format/Info : Advanced Video Codec Format profile : [email protected] Format settings : CABAC / 2 Ref Frames Format settings, CABAC : Yes Format settings, ReFrames : 2 frames Format settings, GOP : M=2, N=30 Codec ID : avc1 Codec ID/Info : Advanced Video Coding Duration : 1 h 49 min Bit rate mode : Variable Bit rate : 2 046 kb/s Maximum bit rate : 768 kb/s Width : 1 280 pixels Height : 720 pixels Display aspect ratio : 16:9 Frame rate mode : Constant Frame rate : 30.000 FPS Color space : YUV Chroma subsampling : 4:2:0 Bit depth : 8 bits Scan type : Progressive Bits/(Pixel*Frame) : 0.074 Stream size : 1.56 GiB (94%) Language : English Audio ID : 2 Format : AAC Format/Info : Advanced Audio Codec Format profile : LC Codec ID : mp4a-40-2 Duration : 1 h 49 min Source duration : 1 h 49 min Bit rate mode : Variable Bit rate : 125 kb/s Maximum bit rate : 197 kb/s Channel(s) : 2 channel Channel positions : Front: L R Sampling rate : 48.0 kHz Frame rate : 46.875 FPS (1024 SPF) Compression mode : Lossy Stream size : 98.0 MiB (6%) Source stream size : 98.0 MiB (6%) Language : English

Videos Add media

DISOBEDIENCE | Official Trailer | In theaters April 27
DISOBEDIENCE | Official Trailer | In theaters Apri...

Movie News

There are no member news items for this movie.
To write a comment please register or