Dirty God

Dirty God

Hot
Mr. MeeseeksMr. Meeseeks   March 10, 2019  
News (0)
Add to list
Dirty God

Movie info

TITLE
Confirmed and upcoming movie titles only! Search before adding to avoid dupes.
YEAR
The year the movie is set to be released.
2019
DIRECTOR
GENRE
Pick one or multiple movie genres.
CINEMA
First cinema release date in any country.
April 25, 2019
DESCRIPTION
The first English feature film from director Sacha Polak, "Dirty God", tells the story of a young mother whose life is changed forever after a horrific acid attack.

Starring Vicky Knight, a real-life burn victim, in her feature film debut. The supporting cast includes Katherine Kelly, Eliza Brady-Girard, Rebecca Stone, Bluey Robinson, and Dana Marienci.
WHERE YOU WATCH

Where you watch Email alert

The movie is online and reported below, Use the alert button to get notified when higher quality versions are available.

Reports

July 12, 2019
Dirty.God.2019.1080p.WEB-DL.DD5.1.H264-FGT
Video and audio quality: 5/5 | Source: Official web stream

Submitted by: Mr. Meeseeks | Trust Rank level: Supreme Member
Format: Torrent | Site: RARBG
Video ID : 1 Format : AVC Format/Info : Advanced Video Codec Format profile : [email protected] Format settings : CABAC / 5 Ref Frames Format settings, CABAC : Yes Format settings, ReFrames : 5 frames Format settings, GOP : N=1 Codec ID : V_MPEG4/ISO/AVC Duration : 1 h 39 min Bit rate : 4 542 kb/s Width : 1 916 pixels Height : 852 pixels Display aspect ratio : 2.25:1 Frame rate mode : Constant Frame rate : 25.000 FPS Color space : YUV Chroma subsampling : 4:2:0 Bit depth : 8 bits Scan type : Progressive Bits/(Pixel*Frame) : 0.111 Stream size : 3.17 GiB (92%) Title : Dirty.God.2019.1080p.WEB-DL.DD5.1.H264-FGT Language : English Default : Yes Forced : No Color range : Limited Color primaries : BT.709 Transfer characteristics : BT.709 Matrix coefficients : BT.709 Audio ID : 2 Format : AC-3 Format/Info : Audio Coding 3 Commercial name : Dolby Digital Codec ID : A_AC3 Duration : 1 h 39 min Bit rate mode : Constant Bit rate : 384 kb/s Channel(s) : 6 channels Channel layout : L R C LFE Ls Rs Sampling rate : 48.0 kHz Frame rate : 31.250 FPS (1536 SPF) Bit depth : 16 bits Compression mode : Lossy Stream size : 274 MiB (8%) Title : Dirty.God.2019.1080p.WEB-DL.DD5.1.H264-FGT Language : English Service kind : Complete Main Default : Yes Forced : No

Videos Add media

DIRTY GOD - Sacha Polak - Officiële Nederlandse trailer - 25-04-2019 in de bioscoop
DIRTY GOD - Sacha Polak - Officiële Nederlandse t...

Movie News

There are no member news items for this movie.
To write a comment please register or