Diary of a Spy

Diary of a Spy

Mr. MeeseeksMr. Meeseeks   July 02, 2022  
Add to list
Diary of a Spy

Movie info

Title
Confirmed and upcoming movie titles only! Search before adding to avoid dupes.
Diary of a Spy
Year
The year the movie is set to be released.
2022
Director
Adam Christian Clark
Genre
Pick one or multiple movie genres.
Digital release
Official digital release date on services such as iTunes, Amazon, Netflix. It's the first known release date, without any country restriction. So if it's out on iTunes Russia first, this would be the digital release date.
July 14, 2022
Description
Starring Tamara Taylor, Reece Noi, Fred Melamed, Madeline Zima, Susan Sullivan, Jon Lindstrom, and Paulina Leija.
Where you watch

Where you watch Email alert

Yes, it is available and reported below. Use the alert button to get notified when higher quality versions are available.

Download and stream reports

Is there a Diary of a Spy torrent? Yes. Reports are available below.
When will Diary of a Spy be available on VOD? It's set for a July 14, 2022 release.

July 23, 2022
Diary.of.a.Spy.2022.1080p.WEBRip.DD5.1.x264-NOGRP
Video and audio quality: 5/5 | Source: Official web stream

Submitted by: Mr. Meeseeks | Trust Rank level: Supreme Member
Format: Torrent | Site: RARBG
Video ID : 1 Format : AVC Format/Info : Advanced Video Codec Format profile : High@L4 Format settings : CABAC / 4 Ref Frames Format settings, CABAC : Yes Format settings, Reference frames : 4 frames Codec ID : V_MPEG4/ISO/AVC Duration : 1 h 39 min Bit rate : 10.0 Mb/s Width : 1 916 pixels Height : 1 032 pixels Display aspect ratio : 1.85:1 Frame rate mode : Constant Frame rate : 23.976 (24000/1001) FPS Color space : YUV Chroma subsampling : 4:2:0 Bit depth : 8 bits Scan type : Progressive Bits/(Pixel*Frame) : 0.212 Stream size : 6.98 GiB (96%) Default : Yes Forced : No Color range : Limited Color primaries : BT.709 Transfer characteristics : BT.709 Matrix coefficients : BT.709 Audio ID : 2 Format : AC-3 Format/Info : Audio Coding 3 Commercial name : Dolby Digital Codec ID : A_AC3 Duration : 1 h 39 min Bit rate mode : Constant Bit rate : 384 kb/s Channel(s) : 6 channels Channel layout : L R C LFE Ls Rs Sampling rate : 48.0 kHz Frame rate : 31.250 FPS (1536 SPF) Compression mode : Lossy Stream size : 273 MiB (4%) Language : English Service kind : Complete Main Default : Yes Forced : No

Videos Add media

Diary of a Spy - Trailer (2022)
Diary of a Spy - Trailer (2022)