Den of Thieves

Den of Thieves

Mr. MeeseeksMr. Meeseeks   February 17, 2018  
News (0)
Add to list
Den of Thieves

Movie info

TITLE
Confirmed and upcoming movie titles only! Search before adding to avoid dupes.
YEAR
The year the movie is set to be released.
2018
GENRE
Pick one or multiple movie genres.
CINEMA
First cinema release date in any country.
January 18, 2018
DESCRIPTION
STX released the crime film “Den of Thieves” last month, raking in over $50 million at the box office which has led to producers pursuing a potential franchise. This film stars Gerard Butler, 50 Cent, Pablo Schreiber, and O'Shea Jackson Jr., as a group of Sheriff Deputies plot to prevent a heist at the Los Angeles Federal Reserve.
WHERE YOU WATCH

Where you watch Email alert

The movie is online and reported below, Use the alert button to get notified when higher quality versions are available.

Reports

April 15, 2018
Den.Of.Thieves.2018.UNRATED.1080p.BluRay.x264-DRONES
Video and audio quality: 5/5 | Source: BluRay

Submitted by: Mr. Meeseeks | Trust Rank level: Legend Member
Format: Torrent | Site: RARBG
Video ID : 1 Format : AVC Format/Info : Advanced Video Codec Format profile : [email protected] Format settings : CABAC / 5 Ref Frames Format settings, CABAC : Yes Format settings, RefFrames : 5 frames Codec ID : V_MPEG4/ISO/AVC Duration : 2 h 28 min Bit rate : 9 001 kb/s Width : 1 920 pixels Height : 800 pixels Display aspect ratio : 2.40:1 Frame rate mode : Constant Frame rate : 23.976 (24000/1001) FPS Color space : YUV Chroma subsampling : 4:2:0 Bit depth : 8 bits Scan type : Progressive Bits/(Pixel*Frame) : 0.244 Stream size : 9.35 GiB (86%) Writing library : x264 core 155 r2901 7d0ff22 Audio ID : 2 Format : DTS Format/Info : Digital Theater Systems Mode : 16 Format settings, Endianness : Big Codec ID : A_DTS Duration : 2 h 28 min Bit rate mode : Constant Bit rate : 1 509 kb/s Channel(s) : 6 channels Channel positions : Front: L C R, Side: L R, LFE Sampling rate : 48.0 kHz Frame rate : 93.750 FPS (512 SPF) Bit depth : 24 bits Compression mode : Lossy Stream size : 1.57 GiB (14%) Language : English Default : Yes Forced : No
April 10, 2018
Den.of.Thieves.2018.HDRip.XviD.AC3-EVO
Video and audio quality: 5/5 | Source: Official web stream

Submitted by: Mr. Meeseeks | Trust Rank level: Legend Member
Format: Torrent | Site: TorrentingMe
ViDEO: 1157 Kbps Kbps -2 Passes RESOLUTiON: 720x304 RUNTiME: 2h 20m 43s SUBTiTLES: No. AUDiO: 384 Kbps AC3 5.1 LANGUAGE: ENGLiSH ENCODER: DdHD
February 17, 2018
Den.of.Thieves.2018.720p.HDTS.x264
Video and audio quality: 2/5 | Source: Camera with line audio

Submitted by: Mr. Meeseeks | Trust Rank level: Legend Member
Format: Torrent | Site: ExtraTorrent
.

Movie News

There are no member news items for this movie.
To write a comment please register or