Death Wish

Death Wish

Ramona FlowersRamona Flowers   September 26, 2017  
News (0)
Add to list
Death Wish
Death Wish with Bruce Willis

Movie info

TITLE
Confirmed and upcoming movie titles only! Search before adding to avoid dupes.
YEAR
The year the movie is set to be released.
2017
DIRECTOR
GENRE
Pick one or multiple movie genres.
CINEMA
First cinema release date in any country.
November 22, 2017
DESCRIPTION
Eli Roth's remake of the 1974 film 'Death Wish' will hit theaters on November 22nd, 2017, starring Bruce Willis as a surgeon who must hunt down his families assailants after his wife and daughter are attacked in their home.
WHERE YOU WATCH

Where you watch Email alert

The movie is online and reported below, Use the alert button to get notified when higher quality versions are available.

Reports

May 25, 2018
Death.Wish.2018.1080p.BluRay.x264-DRONES
Video and audio quality: 5/5 | Source: BluRay

Submitted by: Mr. Meeseeks | Trust Rank level: Legend Member
Format: Torrent | Site: RARBG
Video ID : 1 Format : AVC Format/Info : Advanced Video Codec Format profile : [email protected] Format settings : CABAC / 5 Ref Frames Format settings, CABAC : Yes Format settings, RefFrames : 5 frames Codec ID : V_MPEG4/ISO/AVC Duration : 1 h 46 min Bit rate : 8 754 kb/s Width : 1 920 pixels Height : 800 pixels Display aspect ratio : 2.40:1 Frame rate mode : Constant Frame rate : 23.976 FPS Color space : YUV Chroma subsampling : 4:2:0 Bit depth : 8 bits Scan type : Progressive Bits/(Pixel*Frame) : 0.238 Stream size : 6.52 GiB (85%) Writing library : x264 core 155 r2901 7d0ff22 Language : English Default : Yes Forced : No Audio ID : 2 Format : DTS Format/Info : Digital Theater Systems Mode : 16 Format settings, Endianness : Big Codec ID : A_DTS Duration : 1 h 46 min Bit rate mode : Constant Bit rate : 1 509 kb/s Channel(s) : 6 channels Channel positions : Front: L C R, Side: L R, LFE Sampling rate : 48.0 kHz Frame rate : 93.750 FPS (512 SPF) Bit depth : 24 bits Compression mode : Lossy Stream size : 1.12 GiB (15%) Language : English Default : Yes Forced : No
May 22, 2018
Death.Wish.2018.HDRip.XviD.AC3-EVO
Video and audio quality: 5/5 | Source: Official web stream

Submitted by: Mr. Meeseeks | Trust Rank level: Legend Member
Format: Torrent | Site: 1337x
SOURCE: iTunes :) ViDEO: 1479 Kbps RESOLUTiON: 720x304 RUNTiME: 1h 46m 43s SUBTiTLES: No. AUDiO: 384 Kbps AC3 5.1 LANGUAGE: ENGLiSH ENCODER: DdHD
March 26, 2018
Death Wish 2018 HDCAM 720p
Video and audio quality: 2/5 | Source: Camera

Submitted by: armiestice | Trust Rank level: Standard member
Format: Torrent | Site: 1337x
720p

Videos Add media

DEATH WISH Trailer (2017)
DEATH WISH Trailer (2017)

Movie News

There are no member news items for this movie.
To write a comment please register or