Death of Me

Death of Me

Hot
Ivana 🌿Ivana 🌿   August 21, 2020  
Add to list
Death of Me

Movie info

Title
Confirmed and upcoming movie titles only! Search before adding to avoid dupes.
Death of Me
Year
The year the movie is set to be released.
2020
Genre
Pick one or multiple movie genres.
Digital release
Official digital release date on services such as iTunes, Amazon, Netflix. It's the first known release date, without any country restriction. So if it's out on iTunes Russia first, this would be the digital release date.
October 02, 2020
Description
Starring Alex Essoe, Luke Hemsworth, Maggie Q.
Where you watch

Where you watch Email alert

Yes, it is available and reported below. Use the alert button to get notified when higher quality versions are available.

Download and stream reports

Is there a Death of Me torrent? Yes. Reports are available below.
When will Death of Me be available on VOD? It's set for a October 02, 2020 release.

October 02, 2020
Death.of.Me.2020.1080p.WEB-DL.DD5.1.H264-FGT
Video and audio quality: 5/5 | Source: Official web stream

Submitted by: Mr. Meeseeks | Trust Rank level: Supreme Member
Format: Torrent | Site: RARBG
Video ID : 1 Format : AVC Format/Info : Advanced Video Codec Format profile : High@L4 Format settings : CABAC / 4 Ref Frames Format settings, CABAC : Yes Format settings, Reference frames : 4 frames Codec ID : V_MPEG4/ISO/AVC Duration : 1 h 34 min Bit rate : 5 141 kb/s Width : 1 908 pixels Height : 1 024 pixels Display aspect ratio : 1.85:1 Frame rate mode : Constant Frame rate : 23.976 (24000/1001) FPS Color space : YUV Chroma subsampling : 4:2:0 Bit depth : 8 bits Scan type : Progressive Bits/(Pixel*Frame) : 0.110 Stream size : 3.40 GiB (93%) Title : Death.of.Me.2020.1080p.WEB-DL.DD5.1.H.264-FGT Language : English Default : Yes Forced : No Color range : Limited Color primaries : BT.709 Transfer characteristics : BT.709 Matrix coefficients : BT.709 Audio ID : 2 Format : AC-3 Format/Info : Audio Coding 3 Commercial name : Dolby Digital Codec ID : A_AC3 Duration : 1 h 34 min Bit rate mode : Constant Bit rate : 384 kb/s Channel(s) : 6 channels Channel layout : L R C LFE Ls Rs Sampling rate : 48.0 kHz Frame rate : 31.250 FPS (1536 SPF) Compression mode : Lossy Stream size : 260 MiB (7%) Title : Death.of.Me.2020.1080p.WEB-DL.DD5.1.H.264-FGT Language : English Service kind : Complete Main Default : Yes Forced : No Text ID : 3 Format : UTF-8 Codec ID : S_TEXT/UTF8 Codec ID/Info : UTF-8 Plain Text Duration : 1 h 26 min Bit rate : 40 b/s Count of elements : 1012 Stream size : 25.9 KiB (0%) Language : English Default : Yes Forced : No

Videos Add media

DEATH OF ME Official Trailer (2020) Maggie Q, Luke Hemsworth Horror Movie HD
DEATH OF ME Official Trailer (2020) Maggie Q, Luke...