Deadwood: The Movie

Deadwood: The Movie

Mr. MeeseeksMr. Meeseeks   April 29, 2019  
Add to list
Deadwood: The Movie

Movie info

TITLE
Confirmed and upcoming movie titles only! Search before adding to avoid dupes.
Deadwood: The Movie
YEAR
The year the movie is set to be released.
2019
GENRE
Pick one or multiple movie genres.
DIGITAL RELEASE
Official digital release date on services such as iTunes, Amazon, Netflix. It's the first known release date, without any country restriction. So if it's out on iTunes Russia first, this would be the digital release date.
May 31, 2019
DESCRIPTION
Starring Ian McShane, Timothy Olyphant, John Hawkes, Molly Parker, Brad Dourif, Kim Dickens, Sean Bridgers, Robin Weigert, Anna Gunn, Jeffrey Jones, Paula Malcomson, and Tony Curran.
WHERE YOU WATCH

Where you watch Email alert

The movie is online and reported below, Use the alert button to get notified when higher quality versions are available.

Reports

Is Deadwood: The Movie available online? Yes. Reports of pirated torrents and streams are available below.
When will Deadwood: The Movie be available on digital platforms like iTunes or Amazon? It's set for a May 31, 2019 release. This likely includes iTunes and Amazon unless it is an exclusive Netflix, or similar, release. Physical versions on Blu-Ray or DVD will likely follow.

October 11, 2019
Deadwood.The.Movie.2019.1080p.BluRay.AVC.DTS-HD.MA.5.1-PFa
Video and audio quality: 5/5 | Source: BluRay

Submitted by: Mr. Meeseeks | Trust Rank level: Supreme Member
Format: Torrent | Site: RARBG
Disc Title: Deadwood.The.Movie.2019.1080p.BluRay.AVC.DTS-HD.MA.5.1-PFa Disc Size: 24,664,016,320 bytes Protection: AACS Extras: BD-Java BDInfo: 0.7.5.6 (compatible layout created by DVDFab 11.0.5.4) PLAYLIST REPORT: Name: 00800.MPLS Length: 1:50:03.054 (h:m:s.ms) Size: 22,502,356,992 bytes Total Bitrate: 27.26 Mbps VIDEO: Codec Bitrate Description ----- ------- ----------- MPEG-4 AVC Video 20590 kbps 1080p / 23.976 fps / 16:9 / High Profile 4.1 AUDIO: Codec Language Bitrate Description ----- -------- ------- ----------- DTS-HD Master Audio English 3361 kbps 5.1 / 48 kHz / 3361 kbps / 24-bit (DTS Core: 5.1 / 48 kHz / 1509 kbps / 24-bit) DTS Audio French 768 kbps 5.1 / 48 kHz / 768 kbps / 24-bit DTS Audio Spanish 768 kbps 2.0 / 48 kHz / 768 kbps / 24-bit
June 01, 2019
Deadwood.The.Movie.2019.720p.WEBRip.XviD.AC3-FGT
Video and audio quality: 5/5 | Source: Official web stream

Submitted by: Mr. Meeseeks | Trust Rank level: Supreme Member
Format: Torrent | Site: RARBG
Video ID : 0 Format : MPEG-4 Visual Format profile : [email protected] Format settings, BVOP : No Format settings, QPel : No Format settings, GMC : No warppoints Format settings, Matrix : Default (H.263) Codec ID : XVID Codec ID/Hint : XviD Duration : 1 h 50 min Bit rate : 3 626 kb/s Width : 1 280 pixels Height : 640 pixels Display aspect ratio : 2.000 Frame rate : 23.976 (24000/1001) FPS Color space : YUV Chroma subsampling : 4:2:0 Bit depth : 8 bits Scan type : Progressive Compression mode : Lossy Bits/(Pixel*Frame) : 0.185 Stream size : 2.79 GiB (85%) Writing library : Lavc58.1.100 Audio ID : 1 Format : AC-3 Format/Info : Audio Coding 3 Commercial name : Dolby Digital Codec ID : 2000 Duration : 1 h 50 min Bit rate mode : Constant Bit rate : 640 kb/s Channel(s) : 6 channels Channel layout : L R C LFE Ls Rs Sampling rate : 48.0 kHz Frame rate : 31.250 FPS (1536 SPF) Bit depth : 16 bits Compression mode : Lossy Stream size : 504 MiB (15%) Alignment : Aligned on interleaves Interleave, duration : 42 ms (1.00 video frame) Interleave, preload duration : 512 ms Service kind : Complete Main

Videos Add media

Deadwood: The Movie (2019) | Official Trailer | HBO
Deadwood: The Movie (2019) | Official Trailer | HB...