Dark Waters

Dark Waters

Hot
Mr. MeeseeksMr. Meeseeks   September 18, 2019  
Add to list
Dark Waters

Movie info

Title
Confirmed and upcoming movie titles only! Search before adding to avoid dupes.
Dark Waters
Year
The year the movie is set to be released.
2019
Director
Genre
Pick one or multiple movie genres.
Cinema release
First cinema release date in any country.
November 22, 2019
Digital release
Official digital release date on services such as iTunes, Amazon, Netflix. It's the first known release date, without any country restriction. So if it's out on iTunes Russia first, this would be the digital release date.
February 18, 2020
Description
Starring Mark Ruffalo, Anne Hathaway, Tim Robbins, Bill Camp, Victor Garber, Bill Pullman, William Jackson Harper, and Mare Winningham.
Where you watch

Where you watch Email alert

The movie is online and reported below, Use the alert button to get notified when higher quality versions are available.

Download and stream reports

Can I download or stream Dark Waters? Yes. Reports of pirated torrents and streams are available below.
When will Dark Waters be available on digital platforms like iTunes or Amazon? It's set for a February 18, 2020 release. This likely includes iTunes and Amazon unless it is an exclusive Netflix, or similar, release. Physical versions on Blu-Ray or DVD will likely follow.

February 21, 2020
Dark.Waters.2019.1080p.BluRay.x264.DTS-HD.MA.5.1-FGT
Video and audio quality: 5/5 | Source: BluRay

Submitted by: armiestice | Trust Rank level: Senior Member
Format: Torrent | Site: RARBG
Video ID : 1 Format : AVC Format/Info : Advanced Video Codec Format profile : High@L4.1 Format settings : CABAC / 5 Ref Frames Format settings, CABAC : Yes Format settings, Reference frames : 5 frames Codec ID : V_MPEG4/ISO/AVC Duration : 2 h 7 min Bit rate : 8 336 kb/s Width : 1 920 pixels Height : 808 pixels Display aspect ratio : 2.40:1 Frame rate mode : Constant Frame rate : 23.976 (24000/1001) FPS Color space : YUV Chroma subsampling : 4:2:0 Bit depth : 8 bits Scan type : Progressive Bits/(Pixel*Frame) : 0.224 Stream size : 7.40 GiB (72%) Title : Dark.Waters.2019.1080p.BluRay.x264.DTS-HD.MA.5.1-FGT Writing library : x264 core 159 r2991 1771b55 Encoding settings : cabac=1 / ref=5 / deblock=1:-3:-3 / analyse=0x3:0x133 / me=umh / subme=7 / psy=1 / psy_rd=1.00:0.00 / mixed_ref=1 / me_range=16 / chroma_me=1 / trellis=2 / 8x8dct=1 / cqm=0 / deadzone=21,11 / fast_pskip=1 / chroma_qp_offset=-2 / threads=16 / lookahead_threads=2 / sliced_threads=0 / nr=0 / decimate=1 / interlaced=0 / bluray_compat=0 / constrained_intra=0 / bframes=3 / b_pyramid=2 / b_adapt=2 / b_bias=0 / direct=3 / weightb=1 / open_gop=0 / weightp=2 / keyint=250 / keyint_min=23 / scenecut=40 / intra_refresh=0 / rc_lookahead=50 / rc=2pass / mbtree=1 / bitrate=8336 / ratetol=1.0 / qcomp=0.60 / qpmin=0 / qpmax=69 / qpstep=4 / cplxblur=20.0 / qblur=0.5 / ip_ratio=1.40 / aq=1:1.00 Language : English Default : Yes Forced : No Color range : Limited Matrix coefficients : BT.709 Audio ID : 2 Format : DTS XLL Format/Info : Digital Theater Systems Commercial name : DTS-HD Master Audio Codec ID : A_DTS Duration : 2 h 7 min Bit rate mode : Variable Bit rate : 3 117 kb/s Channel(s) : 6 channels Channel layout : C L R Ls Rs LFE Sampling rate : 48.0 kHz Frame rate : 93.750 FPS (512 SPF) Bit depth : 24 bits Compression mode : Lossless Stream size : 2.77 GiB (27%) Title : Dark.Waters.2019.1080p.BluRay.x264.DTS-HD.MA.5.1-FGT Language : English Default : Yes Forced : No
February 17, 2020
Dark.Waters.2019.1080p.WEB-DL.H264.AC3-EVO
Video and audio quality: 5/5 | Source: Official web stream

Submitted by: Ivana 🌿 | Trust Rank level: Legend Member
Format: Torrent | Site: TorrentGalaxy
Duration: 2hs 7min Resolution: 1916x796 Language: English
January 17, 2020
Dark Waters 2019 SCREENER 1080p x264-TOPKEK
Video and audio quality: 4/5 | Source: Screener

Submitted by: MindOfJigsaw | Trust Rank level: Standard member
Format: Torrent | Site: IPTorrents
Dark Waters 2019 SCREENER 1080p x264-TOPKEK Format : Matroska Format version : Version 2 File size : 33.7 GiB Duration : 2 h 7 min Overall bit rate mode : Variable Overall bit rate : 37.9 Mb/s Encoded date : UTC 2019-12-19 00:00:11 Writing application : MakeMKV v1.14.7 win(x64-release) Writing library : libmakemkv v1.14.7 (1.3.5/1.4.7) win(x64-release) Original source medium : Blu-ray

Videos Add media

DARK WATERS - Official Trailer [HD] - In Theaters November 22
DARK WATERS - Official Trailer [HD] - In Theaters ...