Dads

Mr. MeeseeksMr. Meeseeks   May 30, 2020  
Add to list
Dads

Movie info

Title
Confirmed and upcoming movie titles only! Search before adding to avoid dupes.
Dads
Year
The year the movie is set to be released.
2020
Genre
Pick one or multiple movie genres.
Digital release
Official digital release date on services such as iTunes, Amazon, Netflix. It's the first known release date, without any country restriction. So if it's out on iTunes Russia first, this would be the digital release date.
June 19, 2020
Description
Apple TV+ will premiere the documentary "Dads" from director/actress Bryce Dallas Howard. In this film the topic of fatherhood is the main theme, with the director sitting down with her own father, Ron Howard for a personal discussion.

Other celebrities interviewed include: Will Smith, Judd Apatow, Neil Patrick Harris, Patton Oswalt, Hasan Minhaj, Kenan Thompson, Ken Jeong, Conan O'Brien, Jimmy Fallon, and Jimmy Kimmel.
Where you watch

Where you watch Email alert

Yes, it is available and reported below. Use the alert button to get notified when higher quality versions are available.

Download and stream reports

Can I download or stream Dads? Yes. Reports of pirated torrents and streams are available below.
When will Dads be available on digital platforms like iTunes or Amazon? It's set for a June 19, 2020 release. This likely includes iTunes and Amazon unless it is an exclusive Netflix, or similar, release. Physical versions on Blu-Ray or DVD will likely follow.

June 19, 2020
Dads.2019.1080p.ATVP.WEB-DL.DDP5.1.Atmos.x264-TOMMY
Video and audio quality: 5/5 | Source: Official web stream

Submitted by: Mr. Meeseeks | Trust Rank level: Supreme Member
Format: Torrent | Site: RARBG
Video ID : 1 Format : AVC Format/Info : Advanced Video Codec Format profile : High@L4 Format settings : CABAC / 4 Ref Frames Format settings, CABAC : Yes Format settings, Reference frames : 4 frames Codec ID : V_MPEG4/ISO/AVC Duration : 1 h 20 min Bit rate : 9 960 kb/s Width : 1 920 pixels Height : 1 080 pixels Display aspect ratio : 16:9 Frame rate mode : Constant Frame rate : 23.976 FPS Color space : YUV Chroma subsampling : 4:2:0 Bit depth : 8 bits Scan type : Progressive Bits/(Pixel*Frame) : 0.200 Stream size : 5.63 GiB (93%) Language : English Default : Yes Forced : No Color range : Limited Color primaries : BT.709 Transfer characteristics : BT.709 Matrix coefficients : BT.709 Audio ID : 2 Format : E-AC-3 JOC Format/Info : Enhanced AC-3 with Joint Object Coding Commercial name : Dolby Digital Plus with Dolby Atmos Codec ID : A_EAC3 Duration : 1 h 20 min Bit rate mode : Constant Bit rate : 768 kb/s Channel(s) : 6 channels Channel layout : L R C LFE Ls Rs Sampling rate : 48.0 kHz Frame rate : 31.250 FPS (1536 SPF) Compression mode : Lossy Stream size : 445 MiB (7%) Language : English Service kind : Complete Main Default : Yes Forced : No Complexity index : 16 Number of dynamic objects : 15 Bed channel count : 1 channel Bed channel configuration : LFE

Videos Add media

Dads — Official Trailer | Apple TV+
Dads — Official Trailer | Apple TV+