Crooked House

Crooked House

Ramona FlowersRamona Flowers   October 04, 2017  
News (0)
Add to list
Crooked House

Movie info

TITLE
Confirmed and upcoming movie titles only! Search before adding to avoid dupes.
YEAR
The year the movie is set to be released.
2017
GENRE
Pick one or multiple movie genres.
CINEMA
First cinema release date in any country.
December 22, 2017
DESCRIPTION
“Crooked House” is one of multiple Agatha Christie film adaptations to be released in 2017, written and directed by French filmmaker Gilles Paquet-Brenner. It will be released to theatres worldwide in December, with a cast featuring Max Irons, Glenn Close, Gillian Anderson, Christina Hendricks, and more.
WHERE YOU WATCH

Where you watch Email alert

The movie is online and reported below, Use the alert button to get notified when higher quality versions are available.

Reports

April 07, 2018
Crooked.House.2017.1080p.BluRay.REMUX.AVC.DTS-HD.MA.5.1-FGT
Video and audio quality: 5/5 | Source: BluRay

Submitted by: Mr. Meeseeks | Trust Rank level: Legend Member
Format: Torrent | Site: RARBG
Video ID : 1 Format : AVC Format/Info : Advanced Video Codec Format profile : [email protected] Format settings : CABAC / 2 Ref Frames Format settings, CABAC : Yes Format settings, ReFrames : 2 frames Format settings, GOP : M=1, N=10 Codec ID : V_MPEG4/ISO/AVC Duration : 1 h 55 min Bit rate mode : Variable Bit rate : 24.9 Mb/s Width : 1 920 pixels Height : 1 080 pixels Display aspect ratio : 16:9 Frame rate mode : Constant Frame rate : 23.976 (24000/1001) FPS Color space : YUV Chroma subsampling : 4:2:0 Bit depth : 8 bits Scan type : Progressive Bits/(Pixel*Frame) : 0.500 Stream size : 20.0 GiB (83%) Title : Crooked.House.2017.1080p.BluRay.REMUX.AVC.DTS-HD.MA.5.1-FGT Language : English Default : No Forced : No Audio #1 ID : 2 Format : DTS Format/Info : Digital Theater Systems Format profile : MA / Core Codec ID : A_DTS Duration : 1 h 55 min Bit rate mode : Variable / Constant Bit rate : 2 106 kb/s / 1 509 kb/s Channel(s) : 6 channels Channel positions : Front: L C R, Side: L R, LFE Sampling rate : 48.0 kHz Frame rate : 93.750 FPS (512 SPF) Bit depth : 16 bits Compression mode : Lossless / Lossy Stream size : 1.69 GiB (7%) Title : Crooked.House.2017.1080p.BluRay.REMUX.AVC.DTS-HD.MA.5.1-FGT Language : English Default : Yes Forced : No Audio #2 ID : 3 Format : DTS Format/Info : Digital Theater Systems Codec ID : A_DTS Duration : 1 h 55 min Bit rate mode : Constant Bit rate : 1 509 kb/s Channel(s) : 6 channels Channel positions : Front: L C R, Side: L R, LFE Sampling rate : 48.0 kHz Frame rate : 93.750 FPS (512 SPF) Bit depth : 16 bits Compression mode : Lossy Stream size : 1.21 GiB (5%) Title : Crooked.House.2017.1080p.BluRay.REMUX.AVC.DTS-HD.MA.5.1-FGT Language : English Default : No Forced : No Audio #3 ID : 4 Format : AC-3 Format/Info : Audio Coding 3 Codec ID : A_AC3 Duration : 1 h 55 min Bit rate mode : Constant Bit rate : 640 kb/s Channel(s) : 6 channels Channel positions : Front: L C R, Side: L R, LFE Sampling rate : 48.0 kHz Frame rate : 31.250 FPS (1536 SPF) Bit depth : 16 bits Compression mode : Lossy Stream size : 527 MiB (2%) Title : Crooked.House.2017.1080p.BluRay.REMUX.AVC.DTS-HD.MA.5.1-FGT Language : Hungarian Service kind : Complete Main Default : No Forced : No Audio #4 ID : 5 Format : AC-3 Format/Info : Audio Coding 3 Codec ID : A_AC3 Duration : 1 h 55 min Bit rate mode : Constant Bit rate : 640 kb/s Channel(s) : 6 channels Channel positions : Front: L C R, Side: L R, LFE Sampling rate : 48.0 kHz Frame rate : 31.250 FPS (1536 SPF) Bit depth : 16 bits Compression mode : Lossy Stream size : 527 MiB (2%) Title : Crooked.House.2017.1080p.BluRay.REMUX.AVC.DTS-HD.MA.5.1-FGT Language : Polish Service kind : Complete Main Default : No Forced : No Text #1 ID : 6 Format : PGS Muxing mode : zlib Codec ID : S_HDMV/PGS Codec ID/Info : Picture based subtitle format used on BDs/HD-DVDs Duration : 1 h 48 min Bit rate : 43.1 kb/s Count of elements : 3321 Stream size : 33.5 MiB (0%) Title : English-PGS Language : English Default : No Forced : No Text #2 ID : 7 Format : PGS Muxing mode : zlib Codec ID : S_HDMV/PGS Codec ID/Info : Picture based subtitle format used on BDs/HD-DVDs Duration : 1 h 46 min Bit rate : 40.7 kb/s Count of elements : 2941 Stream size : 30.9 MiB (0%) Title : English-SDH-PGS Language : English Default : No Forced : No Text #3 ID : 8 Format : PGS Muxing mode : zlib Codec ID : S_HDMV/PGS Codec ID/Info : Picture based subtitle format used on BDs/HD-DVDs Duration : 1 h 52 min Bit rate : 33.2 kb/s Count of elements : 2970 Stream size : 26.7 MiB (0%) Title : Bulgarian-PGS Language : Bulgarian Default : No Forced : No Text #4 ID : 9 Format : PGS Muxing mode : zlib Codec ID : S_HDMV/PGS Codec ID/Info : Picture based subtitle format used on BDs/HD-DVDs Duration : 1 h 52 min Bit rate : 34.0 kb/s Count of elements : 2960 Stream size : 27.3 MiB (0%) Title : Croatian-PGS Language : Croatian Default : No Forced : No Text #5 ID : 10 Format : PGS Muxing mode : zlib Codec ID : S_HDMV/PGS Codec ID/Info : Picture based subtitle format used on BDs/HD-DVDs Duration : 1 h 52 min Bit rate : 35.0 kb/s Count of elements : 2960 Stream size : 28.1 MiB (0%) Title : Czech-PGS Language : Czech Default : No Forced : No Text #6 ID : 11 Format : PGS Muxing mode : zlib Codec ID : S_HDMV/PGS Codec ID/Info : Picture based subtitle format used on BDs/HD-DVDs Duration : 1 h 52 min Bit rate : 37.0 kb/s Count of elements : 2960 Stream size : 29.7 MiB (0%) Title : Danish-PGS Language : Danish Default : No Forced : No Text #7 ID : 12 Format : PGS Muxing mode : zlib Codec ID : S_HDMV/PGS Codec ID/Info : Picture based subtitle format used on BDs/HD-DVDs Duration : 1 h 46 min Bit rate : 37.0 kb/s Count of elements : 2566 Stream size : 28.1 MiB (0%) Title : Finnish-PGS Language : Finnish Default : No Forced : No Text #8 ID : 13 Format : PGS Muxing mode : zlib Codec ID : S_HDMV/PGS Codec ID/Info : Picture based subtitle format used on BDs/HD-DVDs Duration : 1 h 52 min Bit rate : 31.5 kb/s Count of elements : 2778 Stream size : 25.3 MiB (0%) Title : French-PGS Language : French Default : No Forced : No Text #9 ID : 14 Format : PGS Muxing mode : zlib Codec ID : S_HDMV/PGS Codec ID/Info : Picture based subtitle format used on BDs/HD-DVDs Duration : 1 h 52 min Bit rate : 35.5 kb/s Count of elements : 2964 Stream size : 28.5 MiB (0%) Title : Hungarian-PGS Language : Hungarian Default : No Forced : No Text #10 ID : 15 Format : PGS Muxing mode : zlib Codec ID : S_HDMV/PGS Codec ID/Info : Picture based subtitle format used on BDs/HD-DVDs Duration : 1 h 51 min Bit rate : 148 b/s Count of elements : 12 Stream size : 122 KiB (0%) Title : Hungarian-FORCED-PGS Language : Hungarian Default : No Forced : No Text #11 ID : 16 Format : PGS Muxing mode : zlib Codec ID : S_HDMV/PGS Codec ID/Info : Picture based subtitle format used on BDs/HD-DVDs Duration : 1 h 52 min Bit rate : 37.5 kb/s Count of elements : 2960 Stream size : 30.1 MiB (0%) Title : Icelandic-PGS Language : Icelandic Default : No Forced : No Text #12 ID : 17 Format : PGS Muxing mode : zlib Codec ID : S_HDMV/PGS Codec ID/Info : Picture based subtitle format used on BDs/HD-DVDs Duration : 1 h 52 min Bit rate : 33.7 kb/s Count of elements : 2868 Stream size : 27.1 MiB (0%) Title : Norwegian-PPGS Language : Norwegian Default : No Forced : No Text #13 ID : 18 Format : PGS Muxing mode : zlib Codec ID : S_HDMV/PGS Codec ID/Info : Picture based subtitle format used on BDs/HD-DVDs Duration : 1 h 52 min Bit rate : 38.8 kb/s Count of elements : 2960 Stream size : 31.2 MiB (0%) Title : Polish-PGS Language : Polish Default : No Forced : No Text #14 ID : 19 Format : PGS Muxing mode : zlib Codec ID : S_HDMV/PGS Codec ID/Info : Picture based subtitle format used on BDs/HD-DVDs Duration : 1 h 52 min Bit rate : 216 b/s Count of elements : 19 Stream size : 178 KiB (0%) Title : Polish-FORCED-PGS Language : Polish Default : No Forced : No Text #15 ID : 20 Format : PGS Muxing mode : zlib Codec ID : S_HDMV/PGS Codec ID/Info : Picture based subtitle format used on BDs/HD-DVDs Duration : 1 h 52 min Bit rate : 34.3 kb/s Count of elements : 2956 Stream size : 27.6 MiB (0%) Title : Portuguese-PGS Language : Portuguese Default : No Forced : No Text #16 ID : 21 Format : PGS Muxing mode : zlib Codec ID : S_HDMV/PGS Codec ID/Info : Picture based subtitle format used on BDs/HD-DVDs Duration : 1 h 52 min Bit rate : 37.0 kb/s Count of elements : 2964 Stream size : 29.8 MiB (0%) Title : Romanian-PGS Language : Romanian Default : No Forced : No Text #17 ID : 22 Format : PGS Muxing mode : zlib Codec ID : S_HDMV/PGS Codec ID/Info : Picture based subtitle format used on BDs/HD-DVDs Duration : 1 h 52 min Bit rate : 35.8 kb/s Count of elements : 2984 Stream size : 28.8 MiB (0%) Title : Serbian-PGS Language : Serbian Default : No Forced : No Text #18 ID : 23 Format : PGS Muxing mode : zlib Codec ID : S_HDMV/PGS Codec ID/Info : Picture based subtitle format used on BDs/HD-DVDs Duration : 1 h 52 min Bit rate : 31.7 kb/s Count of elements : 2962 Stream size : 25.4 MiB (0%) Title : Slovak-PGS Language : Slovak Default : No Forced : No Text #19 ID : 24 Format : PGS Muxing mode : zlib Codec ID : S_HDMV/PGS Codec ID/Info : Picture based subtitle format used on BDs/HD-DVDs Duration : 1 h 52 min Bit rate : 29.6 kb/s Count of elements : 2960 Stream size : 23.7 MiB (0%) Title : Slovenian-PGS Language : Slovenian Default : No Forced : No Text #20 ID : 25 Format : PGS Muxing mode : zlib Codec ID : S_HDMV/PGS Codec ID/Info : Picture based subtitle format used on BDs/HD-DVDs Duration : 1 h 52 min Bit rate : 37.7 kb/s Count of elements : 2964 Stream size : 30.4 MiB (0%) Title : Spanish-PGS Language : Spanish Default : No Forced : No Text #21 ID : 26 Format : PGS Muxing mode : zlib Codec ID : S_HDMV/PGS Codec ID/Info : Picture based subtitle format used on BDs/HD-DVDs Duration : 1 h 52 min Bit rate : 36.4 kb/s Count of elements : 2942 Stream size : 29.2 MiB (0%) Title : Swedish-PGS Language : Swedish Default : No Forced : No
November 21, 2017
Crooked.House.2017.1080p.WEB-DL.DD5.1.H264-FGT
Video and audio quality: 5/5 | Source: Official web stream

Submitted by: Mavoy | Trust Rank level: Standard member
Format: Official stream | Site: RarBG
Official 1080p copy

Videos Add media

Crooked House - Official Trailer
Crooked House - Official Trailer

Movie News

There are no member news items for this movie.
To write a comment please register or